(Orchestral) Н.Я.Мясковский - »Молчание« • Симфония №12 (Czecho-Slovak Radio Symphony Orchestra - Robert Stankovsky) - 1991, FLAC (image+.cue) lossless


 

[Цитировать]

Nikolai
MIASKOVSKY
Symphony No.12 • »Silence«
- Жанр: Orchestral
Страна-производитель диска: Germany
Год издания диска: 1991
Издатель (лейбл): Marco Polo
Дата записи: 1989/90
Аудиокодек: FLAC
Тип рипа: image+.cue
Битрейт аудио: lossless
Продолжительность: 61'28''
Источник: собственный рип
Наличие сканов в содержимом раздачи: да
Треклист:
[01] »Молчание«
Симфония №12:
[02] I. Andante - Adagio severo - Allegro giocoso
[03] II. Presto agitato
[04] III. Allegro festivo e maestoso - Adagio - Allegro agitato
Исполнители:
Czecho-Slovak Radio Symphony Orchestra - Robert Stankovsky
-

Лог создания рипа

Exact Audio Copy V1.1 from 23. June 2015
EAC extraction logfile from 6. December 2015, 20:46
Bratislava RSO - Robert Stankovsky / N.Miaskovsky - Silence, Symphony No.12
Used drive : TEAC CD-W540E Adapter: 1 ID: 1
Read mode : SecureUtilize accurate stream : YesDefeat audio cache : YesMake use of C2 pointers : No
Read offset correction : 686Overread into Lead-In and Lead-Out : NoFill up missing offset samples with silence : YesDelete leading and trailing silent blocks : NoNull samples used in CRC calculations : YesUsed interface : Native Win32 interface for Win NT & 2000
Used output format : User Defined EncoderSelected bitrate : 1024 kBit/sQuality : HighAdd ID3 tag : NoCommand line compressor : C:\flac-1.3.1pre1-win\win64\flac.exeAdditional command line options : -T "COMMENT=rip by el coronel" -8 -V %source%
TOC of the extracted CD
Track | Start | Length | Start sector | End sector --------------------------------------------------------- 1 | 0:00.00 | 27:32.00 | 0 | 123899 2 | 27:32.00 | 12:16.08 | 123900 | 179107 3 | 39:48.08 | 9:28.70 | 179108 | 221777 4 | 49:17.03 | 12:10.35 | 221778 | 276562
Range status and errors
Selected range
Filename F:\Myaskovsky 12 Stankovsky\CD.wav
Peak level 98.9 % Extraction speed 4.7 X Range quality 99.9 % Test CRC 214D2316 Copy CRC 214D2316 Copy OK
No errors occurred
AccurateRip summary
Track 1 accurately ripped (confidence 6) [61DA7110] (AR v2)Track 2 accurately ripped (confidence 6) [D67E36DD] (AR v2)Track 3 accurately ripped (confidence 6) [984F995B] (AR v2)Track 4 accurately ripped (confidence 6) [55D38A2F] (AR v2)
All tracks accurately ripped
End of status report
---- CUETools DB Plugin V2.1.6
[CTDB TOCID: 8.mfr2gP6NMfQeRxxI.4O2ovPtY-] foundSubmit result: 8.mfr2gP6NMfQeRxxI.4O2ovPtY- has been confirmedTrack | CTDB Status 1 | (2/2) Accurately ripped 2 | (2/2) Accurately ripped 3 | (2/2) Accurately ripped 4 | (2/2) Accurately ripped
==== Log checksum 36A67A33930BD5F023FAD8E53EBB290A996B0997F27B8125D38FC6538B616A4D ====

Содержание индексной карты (.CUE)

REM GENRE ClassicalREM DATE 1991REM DISCID 390E6704REM COMMENT "ExactAudioCopy v1.1"PERFORMER "Bratislava RSO - Robert Stankovsky"TITLE "N.Miaskovsky - Silence, Symphony No.12"FILE "CD.flac" WAVE TRACK 01 AUDIO TITLE "»Silence«, symphonic poem after Poe" PERFORMER "Bratislava RSO - Robert Stankovsky" INDEX 01 00:00:00 TRACK 02 AUDIO TITLE "Symphonie Nr. 12: I. Andante - Adagio severo - Allegro giocoso" PERFORMER "Bratislava RSO - Robert Stankovsky" INDEX 01 27:32:00 TRACK 03 AUDIO TITLE "II. Presto agitato" PERFORMER "Bratislava RSO - Robert Stankovsky" INDEX 01 39:48:08 TRACK 04 AUDIO TITLE "III. Allegro festivo e maestoso - Adagio - Allegro agitato" PERFORMER "Bratislava RSO - Robert Stankovsky" INDEX 01 49:17:03
-



Показать сообщения:    

Текущее время: 08-Дек 17:23

Часовой пояс: UTC + 3


Вы не можете начинать темы
Вы не можете отвечать на сообщения
Вы не можете редактировать свои сообщения
Вы не можете удалять свои сообщения
Вы не можете голосовать в опросах
Вы не можете прикреплять файлы к сообщениям
Вы не можете скачивать файлы