(Classical) Robert de Visee - La Musique de la Chambre du Roy, Vol.1 - Manuel Staropoli, Massimo Marchese, Cristiano Contadin - 2011, FLAC (image+.cue) lossless


 

[Цитировать]

Robert de Visee - La Musique de la Chambre du Roy, Vol.1 - Manuel Staropoli, Massimo Marchese, Cristiano Contadin
Жанр: Classical
Год издания диска: 2011
Издатель (лейбл): Brilliant Classics
Номер по каталогу: 94154
Дата записи: 2010
Аудиокодек: FLAC
Тип рипа: image+.cue
Битрейт аудио: lossless
Продолжительность: 55:22
Источник: собственный рип
Наличие сканов в содержимом раздачи: да
Треклист:
Robert de Visée (c.1655-1733)
[1]-[6] Suite in C major
[7]-[12] Suite in A minor
[13]-[18] Suite in D minor
[19] Les Sylvains de Couperin
[20]-[25] Suite in G major
[26]-[31] Suite in G minor
Исполнители:
Manuel Staropoli recorder & baroque flute
Massimo Marchese theorbo
Cristiano Contadin viola da gamba

Лог создания рипа

Exact Audio Copy V1.0 beta 3 from 29. August 2011
EAC extraction logfile from 7. May 2015, 22:14
Manuel Staropoli, Massimo Marchese, Cristiano Contadin / Robert de Visee - La Musique de la Chambre du Roy, Vol.1
Used drive : HL-DT-STDVDRAM GU70N Adapter: 0 ID: 0
Read mode : SecureUtilize accurate stream : YesDefeat audio cache : YesMake use of C2 pointers : No
Read offset correction : 48Overread into Lead-In and Lead-Out : NoFill up missing offset samples with silence : YesDelete leading and trailing silent blocks : NoNull samples used in CRC calculations : YesUsed interface : Native Win32 interface for Win NT & 2000
Used output format : User Defined EncoderSelected bitrate : 128 kBit/sQuality : HighAdd ID3 tag : NoCommand line compressor : C:\Program Files (x86)\Exact Audio Copy\Flac\flac.exeAdditional command line options : -V -8 -T "Date=%year%" -T "Genre=%genre%" %source%
TOC of the extracted CD
Track | Start | Length | Start sector | End sector --------------------------------------------------------- 1 | 0:00.00 | 2:07.56 | 0 | 9580 2 | 2:07.56 | 1:15.64 | 9581 | 15269 3 | 3:23.45 | 0:46.35 | 15270 | 18754 4 | 4:10.05 | 3:03.08 | 18755 | 32487 5 | 7:13.13 | 0:46.74 | 32488 | 36011 6 | 8:00.12 | 1:06.24 | 36012 | 40985 7 | 9:06.36 | 0:39.46 | 40986 | 43956 8 | 9:46.07 | 2:44.65 | 43957 | 56321 9 | 12:30.72 | 1:17.20 | 56322 | 62116 10 | 13:48.17 | 2:09.07 | 62117 | 71798 11 | 15:57.24 | 1:05.30 | 71799 | 76703 12 | 17:02.54 | 1:27.23 | 76704 | 83251 13 | 18:30.02 | 2:45.25 | 83252 | 95651 14 | 21:15.27 | 1:07.46 | 95652 | 100722 15 | 22:22.73 | 1:56.21 | 100723 | 109443 16 | 24:19.19 | 0:44.49 | 109444 | 112792 17 | 25:03.68 | 1:39.74 | 112793 | 120291 18 | 26:43.67 | 1:21.05 | 120292 | 126371 19 | 28:04.72 | 6:21.33 | 126372 | 154979 20 | 34:26.30 | 2:23.10 | 154980 | 165714 21 | 36:49.40 | 1:16.40 | 165715 | 171454 22 | 38:06.05 | 1:43.49 | 171455 | 179228 23 | 39:49.54 | 1:09.64 | 179229 | 184467 24 | 40:59.43 | 1:02.03 | 184468 | 189120 25 | 42:01.46 | 2:32.70 | 189121 | 200590 26 | 44:34.41 | 3:40.48 | 200591 | 217138 27 | 48:15.14 | 1:31.50 | 217139 | 224013 28 | 49:46.64 | 2:10.70 | 224014 | 233833 29 | 51:57.59 | 0:56.53 | 233834 | 238086 30 | 52:54.37 | 0:45.23 | 238087 | 241484 31 | 53:39.60 | 1:40.41 | 241485 | 249025
Range status and errors
Selected range
Filename C:\temp\Robert de Visee - La Musique de la Chambre du Roy, Vol.1\Robert de Visee - La Musique de la Chambre du Roy, Vol.1.wav
Peak level 91.8 % Extraction speed 5.0 X Range quality 99.9 % Test CRC C8F5D8B0 Copy CRC C8F5D8B0 Copy OK
No errors occurred
AccurateRip summary
Track 1 accurately ripped (confidence 1) [D4E5C0AC] (AR v2)Track 2 accurately ripped (confidence 1) [161C0153] (AR v2)Track 3 accurately ripped (confidence 1) [EB879618] (AR v2)Track 4 accurately ripped (confidence 1) [975663A3] (AR v2)Track 5 accurately ripped (confidence 1) [A741A6EF] (AR v2)Track 6 accurately ripped (confidence 1) [20C2A219] (AR v2)Track 7 accurately ripped (confidence 1) [E351F9F4] (AR v2)Track 8 accurately ripped (confidence 1) [5E61DB80] (AR v2)Track 9 accurately ripped (confidence 1) [AA1743B6] (AR v2)Track 10 accurately ripped (confidence 1) [B1C1CD2F] (AR v2)Track 11 accurately ripped (confidence 1) [710E2976] (AR v2)Track 12 accurately ripped (confidence 1) [8591236F] (AR v2)Track 13 accurately ripped (confidence 1) [D56557D3] (AR v2)Track 14 accurately ripped (confidence 1) [890DCC7E] (AR v2)Track 15 accurately ripped (confidence 1) [B60BBDEB] (AR v2)Track 16 accurately ripped (confidence 1) [D6E01D81] (AR v2)Track 17 accurately ripped (confidence 1) [1B180BBE] (AR v2)Track 18 accurately ripped (confidence 1) [611C119A] (AR v2)Track 19 accurately ripped (confidence 1) [AB2A08F4] (AR v2)Track 20 accurately ripped (confidence 1) [BDF51097] (AR v2)Track 21 accurately ripped (confidence 1) [059D7A1B] (AR v2)Track 22 accurately ripped (confidence 1) [2468EB0A] (AR v2)Track 23 accurately ripped (confidence 1) [2A4FE738] (AR v2)Track 24 accurately ripped (confidence 1) [EB95EFBF] (AR v2)Track 25 accurately ripped (confidence 1) [4C983FB4] (AR v2)Track 26 accurately ripped (confidence 1) [73578F05] (AR v2)Track 27 accurately ripped (confidence 1) [4DF10C00] (AR v2)Track 28 accurately ripped (confidence 1) [E79C41F7] (AR v2)Track 29 accurately ripped (confidence 1) [E603F738] (AR v2)Track 30 accurately ripped (confidence 1) [D0242994] (AR v2)Track 31 accurately ripped (confidence 1) [BD7023A8] (AR v2)
All tracks accurately ripped
End of status report
==== Log checksum F7BB8B8E5BB0D630B110107C3FD0A6C192B49D0E68A4A2A5A4C314D90CDFAD55 ====



Показать сообщения:    

Текущее время: 07-Дек 21:25

Часовой пояс: UTC + 3


Вы не можете начинать темы
Вы не можете отвечать на сообщения
Вы не можете редактировать свои сообщения
Вы не можете удалять свои сообщения
Вы не можете голосовать в опросах
Вы не можете прикреплять файлы к сообщениям
Вы не можете скачивать файлы