Последний день - Игорь Тальков (Вера Травкина) [2015 г., документальный, DVB]


Статистика раздачи [Обновить пиров]
Размер:  822 MB   |    Зарегистрирован:  10 месяцев 18 дней   |    Скачан:  0 раз

Полного источника не было: Никогда

Личеров:  2  [  0 KB/s  ]   Подробная статистика пиров
 
   
 
 
 

[Цитировать]

Последний день - Игорь Тальков
Год выпуска: 2015
Страна: Россия
Жанр: документальный, биография
Продолжительность: 00:37:51
Режиссёр: Вера Травкина
Телеканал: Звезда
Описание: За две недели до своей трагической гибели Игорь Тальков остался без старых друзей-музыкантов и верного телохранителя, которого знал ещё с детства. Впервые за время концертной деятельности рядом со звездой советской эстрады не было близких людей – тех, кто давно и хорошо его знал. А потому в последний день жизни певца никто в его окружении не понял: что-то идёт не так...
Доп. информация: огромная благодарность xfiles за исходник DVB!
Качество: DVB
Формат: MPG
Видео: MPEG2 Video 720x576 (16:9) 25fps 2781kbps
Аудио: MPEG Audio 48000Hz stereo 192kbps

Анаморфированные скриншоты


Подробные технические данные

GeneralComplete name : Последний день - Игорь Тальков (2015) [Звезда].mpgFormat : MPEG-PSFile size : 822 MiBDuration : 37mn 51sOverall bit rate mode : VariableOverall bit rate : 3 034 KbpsWriting library : (dvd5: Oct 27 2015)
VideoID : 224 (0xE0)Format : MPEG VideoFormat version : Version 2Format profile : Main@MainFormat settings, BVOP : YesFormat settings, Matrix : CustomFormat settings, GOP : VariableFormat settings, picture struc : FrameDuration : 37mn 51sBit rate mode : VariableBit rate : 2 781 KbpsMaximum bit rate : 15.0 MbpsWidth : 720 pixelsHeight : 576 pixelsDisplay aspect ratio : 16:9Frame rate : 25.000 fpsStandard : PALColor space : YUVChroma subsampling : 4:2:0Bit depth : 8 bitsScan type : InterlacedScan order : Top Field FirstCompression mode : LossyBits/(Pixel*Frame) : 0.268Time code of first frame : 00:00:00:00Time code source : Group of pictures headerGOP, Open/Closed : OpenGOP, Open/Closed of first fram : ClosedStream size : 753 MiB (92%)Writing library : (dvd5: Oct 27 2015)
AudioID : 192 (0xC0)Format : MPEG AudioFormat version : Version 1Format profile : Layer 2Duration : 37mn 51sBit rate mode : ConstantBit rate : 192 KbpsChannel(s) : 2 channelsSampling rate : 48.0 KHzCompression mode : LossyStream size : 52.0 MiB (6%)
[teatrix.ru].t12854.torrent 
Торрент: Зарегистрирован [ 2016-01-16 23:10 ] · 313A22C78893EF66F6D982E955D02FB6D9AB5C58

Скачать .torrent

Скачать

17 KB

Статус: проверено
Скачан: 0 раз
Размер: 822 MB
terms.php



Быстрый ответ

Имя:

      
Для отправки сообщений необходимо включить JavaScript
Показать сообщения:    

Текущее время: 04-Дек 00:52

Часовой пояс: UTC + 3


Вы можете начинать темы
Вы можете отвечать на сообщения
Вы не можете редактировать свои сообщения
Вы не можете удалять свои сообщения
Вы не можете голосовать в опросах
Вы не можете прикреплять файлы к сообщениям
Вы можете скачивать файлы