(Sacred choral / instrumental) Arvo Part - Wallfahrtslied, Orient and Occident, Nunc dimittis, Fratres, Te Deum (Gordan Nikolic, Netherlands Chamber Choir & Orchestra, Risto Joost) - 2012, FLAC (tracks+.cue) lossless


Статистика раздачи [Обновить пиров]
Размер:  319 MB   |    Зарегистрирован:  10 месяцев 24 дня   |    Скачан:  0 раз

Полного источника не было: Никогда

Личеров:  2  [  0 KB/s  ]   Подробная статистика пиров
 
   
 
 
 

[Цитировать]

Arvo Part - Wallfahrtslied, Orient and Occident, Nunc dimittis, Fratres, Te Deum

Жанр: Sacred choral / instrumental
Страна-производитель диска: Made in The Netherlands
Год издания диска: 2012
Издатель (лейбл): Globe / KPP
Номер по каталогу: GLO5252
Дата записи: 2012
Аудиокодек: FLAC
Тип рипа: tracks+.cue
Битрейт аудио: lossless
Продолжительность: неизвестно
Источник: релизер
сайт-источник/ник/другое: ruskaval, рип не его
Наличие сканов в содержимом раздачи: да
Треклист:

скрытый текст

01 - Wallfahrtslied (1985)
02 - Orient and Occident (2000)
03 - Nunc dimittis (2001)
04 - Fratres (1997)
05 - Te Deum Verses 1-4 (1984-85 rev 2007)
06 - Te Deum Verses 5-6 (1984-85 rev 2007)
07 - Te Deum Verses 7-9 (1984-85 rev 2007)
08 - Te Deum Verses 10-12 (1984-85 rev 2007)
09 - Te Deum Verses 13-15 (1984-85 rev 2007)
10 - Te Deum Verses 16-17 (1984-85 rev 2007)
Исполнители:

скрытый текст

Arvo Part
Wallfahrtslied, Orient and Occident, Nunc dimittis, Fratres, Te Deum
Gordan Nikolic - violin
Netherlands Chamber Choir
Netherlands Chamber Orchestra
Risto Joost - Conductor

Лог создания рипа

Exact Audio Copy V1.0 beta 3 from 29. August 2011
EAC extraction logfile from 19. March 2015, 16:37
Arvo Part / Te Deum
Used drive : TSSTcorpCDDVDW SH-224DB Adapter: 2 ID: 0
Read mode : SecureUtilize accurate stream : YesDefeat audio cache : YesMake use of C2 pointers : No
Read offset correction : 6Overread into Lead-In and Lead-Out : NoFill up missing offset samples with silence : YesDelete leading and trailing silent blocks : NoNull samples used in CRC calculations : YesUsed interface : Native Win32 interface for Win NT & 2000Gap handling : Appended to previous track
Used output format : User Defined EncoderSelected bitrate : 768 kBit/sQuality : HighAdd ID3 tag : NoCommand line compressor : C:\Program Files (x86)\Exact Audio Copy\FLAC\FLAC.EXEAdditional command line options : -8 -V -T "ARTIST=%artist%" -T "TITLE=%title%" -T "ALBUM=%albumtitle%" -T "DATE=%year%" -T "TRACKNUMBER=%tracknr%" -T "TOTALTRACKS=%numtracks%" -T "GENRE=%genre%" -T "ALBUMARTIST=%albumartist%" -T "ALBUM ARTIST=%albumartist%" -T "COMMENT=EAC Secure Mode, Test & Copy, AccurateRip, FLAC -8" %source%
TOC of the extracted CD
Track | Start | Length | Start sector | End sector––––––––––––––––––––––––––––-1 | 0:00.00 | 8:46.70 | 0 | 395192 | 8:46.70 | 7:26.37 | 39520 | 730063 | 16:13.32 | 6:41.28 | 73007 | 1031094 | 22:54.60 | 11:20.71 | 103110 | 1541805 | 34:15.56 | 6:55.02 | 154181 | 1853076 | 41:10.58 | 5:38.22 | 185308 | 2106797 | 46:49.05 | 4:25.04 | 210680 | 2305588 | 51:14.09 | 4:22.60 | 230559 | 2502689 | 55:36.69 | 5:51.38 | 250269 | 27663110 | 61:28.32 | 2:29.11 | 276632 | 287817
Track 1
Filename g:\eac\01 - Wallfahrtslied (1985).wav
Pre-gap length 0:00:02.00
Peak level 42.5 %Extraction speed 2.1 XTrack quality 100.0 %Test CRC 45FD8796Copy CRC 45FD8796Accurately ripped (confidence 4) [60BA0045] (AR v2)Copy OK
Track 2
Filename g:\eac\02 - Orient and Occident (2000).wav
Pre-gap length 0:00:03.45
Peak level 67.9 %Extraction speed 2.2 XTrack quality 99.9 %Test CRC 351326D1Copy CRC 351326D1Accurately ripped (confidence 4) [2ACD05A3] (AR v2)Copy OK
Track 3
Filename g:\eac\03 - Nunc dimittis (2001).wav
Pre-gap length 0:00:05.23
Peak level 89.1 %Extraction speed 2.3 XTrack quality 99.9 %Test CRC 5DF5E0C1Copy CRC 5DF5E0C1Accurately ripped (confidence 4) [B1977B43] (AR v2)Copy OK
Track 4
Filename g:\eac\04 - Fratres (1997).wav
Pre-gap length 0:00:07.70
Peak level 82.1 %Extraction speed 2.8 XTrack quality 99.9 %Test CRC C5F39942Copy CRC C5F39942Accurately ripped (confidence 4) [401C12AB] (AR v2)Copy OK
Track 5
Filename g:\eac\05 - Te Deum Verses 1-4 (1984-85 rev 2007).wav
Pre-gap length 0:00:07.02
Peak level 90.3 %Extraction speed 3.3 XTrack quality 100.0 %Test CRC 454AC04DCopy CRC 454AC04DAccurately ripped (confidence 4) [F965CF83] (AR v2)Copy OK
Track 6
Filename g:\eac\06 - Te Deum Verses 5-6 (1984-85 rev 2007).wav
Peak level 79.6 %Extraction speed 2.8 XTrack quality 99.9 %Test CRC 4A32FF1ECopy CRC 4A32FF1EAccurately ripped (confidence 4) [DEE4E42F] (AR v2)Copy OK
Track 7
Filename g:\eac\07 - Te Deum Verses 7-9 (1984-85 rev 2007).wav
Peak level 92.8 %Extraction speed 3.4 XTrack quality 100.0 %Test CRC 5F1CC92ACopy CRC 5F1CC92AAccurately ripped (confidence 4) [EC76E017] (AR v2)Copy OK
Track 8
Filename g:\eac\08 - Te Deum Verses 10-12 (1984-85 rev 2007).wav
Peak level 31.1 %Extraction speed 3.5 XTrack quality 100.0 %Test CRC 852D5D69Copy CRC 852D5D69Accurately ripped (confidence 4) [CB6A6956] (AR v2)Copy OK
Track 9
Filename g:\eac\09 - Te Deum Verses 13-15 (1984-85 rev 2007).wav
Peak level 88.2 %Extraction speed 3.8 XTrack quality 100.0 %Test CRC 3EFECEBFCopy CRC 3EFECEBFAccurately ripped (confidence 4) [02AA2BF9] (AR v2)Copy OK
Track 10
Filename g:\eac\10 - Te Deum Verses 16-17 (1984-85 rev 2007).wav
Peak level 27.0 %Extraction speed 3.4 XTrack quality 100.0 %Test CRC 9E8BFEEACopy CRC 9E8BFEEAAccurately ripped (confidence 4) [F22FA59F] (AR v2)Copy OK
All tracks accurately ripped
No errors occurred
End of status report
–– CUETools DB Plugin V2.1.3
[CTDB TOCID: 69A.VnKFaTJ6SbxyBH2xaeBZwJE-] found, Submit result: 69A.VnKFaTJ6SbxyBH2xaeBZwJE- has been confirmed[f5712bf3] (3/3) Accurately ripped
==== Log checksum A3F0D6289CC0B3B22DA37737598D7B2082D4BE0EEF88F09D08857242CB68748D ====

Содержание индексной карты (.CUE)

REM DATE 2012REM DISCID 930EFD0AREM COMMENT "ExactAudioCopy v1.0b3"PERFORMER "Arvo Part"TITLE "Te Deum"FILE "01 - Wallfahrtslied (1985).wav" WAVE TRACK 01 AUDIO TITLE "Wallfahrtslied (1985)" PERFORMER "Arvo Part" INDEX 01 00:00:00 TRACK 02 AUDIO TITLE "Orient and Occident (2000)" PERFORMER "Arvo Part" INDEX 00 08:43:25FILE "02 - Orient and Occident (2000).wav" WAVE INDEX 01 00:00:00 TRACK 03 AUDIO TITLE "Nunc dimittis (2001)" PERFORMER "Arvo Part" INDEX 00 07:21:14FILE "03 - Nunc dimittis (2001).wav" WAVE INDEX 01 00:00:00 TRACK 04 AUDIO TITLE "Fratres (1997)" PERFORMER "Arvo Part" INDEX 00 06:33:33FILE "04 - Fratres (1997).wav" WAVE INDEX 01 00:00:00 TRACK 05 AUDIO TITLE "Te Deum Verses 1-4 (1984-85 rev 2007)" PERFORMER "Arvo Part" INDEX 00 11:13:69FILE "05 - Te Deum Verses 1-4 (1984-85 rev 2007).wav" WAVE INDEX 01 00:00:00FILE "06 - Te Deum Verses 5-6 (1984-85 rev 2007).wav" WAVE TRACK 06 AUDIO TITLE "Te Deum Verses 5-6 (1984-85 rev 2007)" PERFORMER "Arvo Part" INDEX 01 00:00:00FILE "07 - Te Deum Verses 7-9 (1984-85 rev 2007).wav" WAVE TRACK 07 AUDIO TITLE "Te Deum Verses 7-9 (1984-85 rev 2007)" PERFORMER "Arvo Part" INDEX 01 00:00:00FILE "08 - Te Deum Verses 10-12 (1984-85 rev 2007).wav" WAVE TRACK 08 AUDIO TITLE "Te Deum Verses 10-12 (1984-85 rev 2007)" PERFORMER "Arvo Part" INDEX 01 00:00:00FILE "09 - Te Deum Verses 13-15 (1984-85 rev 2007).wav" WAVE TRACK 09 AUDIO TITLE "Te Deum Verses 13-15 (1984-85 rev 2007)" PERFORMER "Arvo Part" INDEX 01 00:00:00FILE "10 - Te Deum Verses 16-17 (1984-85 rev 2007).wav" WAVE TRACK 10 AUDIO TITLE "Te Deum Verses 16-17 (1984-85 rev 2007)" PERFORMER "Arvo Part" INDEX 01 00:00:00
[teatrix.ru].t12858.torrent 
Торрент: Зарегистрирован [ 2016-01-17 13:10 ] · 0DA493A173C8B944D5B2EEEDBDD499C2A673E836

Скачать .torrent

Скачать

15 KB

Статус: проверено
Скачан: 0 раз
Размер: 319 MB
terms.php



Быстрый ответ

Имя:

      
Для отправки сообщений необходимо включить JavaScript
Показать сообщения:    

Текущее время: 11-Дек 07:16

Часовой пояс: UTC + 3


Вы можете начинать темы
Вы можете отвечать на сообщения
Вы не можете редактировать свои сообщения
Вы не можете удалять свои сообщения
Вы не можете голосовать в опросах
Вы не можете прикреплять файлы к сообщениям
Вы можете скачивать файлы