(Opera) Giuseppe Verdi - Un Ballo in Maschera / Джузеппе Верди - Бал-Маскарад (Claudio Abbado; Luciano Pavarotti, Piero Cappuccilli, Gabriele Lechner, Ludmilla Semtschuk, Magda Nador), 1986 - live from Wiener Staatsoper / FLAC (tracks+.cue), lossless


 

[Цитировать]

Giuseppe Verdi - Un Ballo in Maschera / Джузеппе Верди - Бал-Маскарад (Claudio Abbado; Luciano Pavarotti, Piero Cappuccilli, Gabriele Lechner, Ludmilla Semtschuk, Magda Nador)
Жанр: Opera
Страна-производитель диска: Италия
Год издания диска: 1994
Издатель (лейбл): Serenissima
Дата записи: 1986
Аудиокодек: FLAC
Тип рипа: tracks+.cue
Битрейт аудио: lossless
Продолжительность: 142:19
Источник: релизер (EL HUMILDE CAMPESINO)
Исполнители:
Riccardo - Luciano Pavarotti,
Renato - Piero Cappuccilli,
Amelia - Gabriele Lechner,
Ulrica - Ludmilla Semtschuk,
Oscar - Magda Nador,
Silvano - Georg Tichy,
Samuele - Franco De Grandis,
Tom - Goran Simic,
Un Giudice - Alexander Maly,
Un servo - Franz Kasemann.
Conductor - Claudio Abbado,
Orchestra and Chorus of Wiener Staatsoper.
Recorded live at Wiener Staatsoper, October 1986.

Лог создания рипаЛог создания рипа CD 1

Exact Audio Copy V1.0 beta 3 from 29. August 2011
EAC extraction logfile from 9. January 2016, 14:16
Artista desconocido / Título desconocido
Used drive : HL-DT-STDVDRAM GH24NSC0 Adapter: 3 ID: 0
Read mode : Secure
Utilize accurate stream : Yes
Defeat audio cache : Yes
Make use of C2 pointers : No
Read offset correction : 6
Overread into Lead-In and Lead-Out : No
Fill up missing offset samples with silence : Yes
Delete leading and trailing silent blocks : No
Null samples used in CRC calculations : Yes
Used interface : Native Win32 interface for Win NT & 2000
Gap handling : Appended to previous track
Used output format : User Defined Encoder
Selected bitrate : 768 kBit/s
Quality : High
Add ID3 tag : No
Command line compressor : C:\Program Files (x86)\Exact Audio Copy\FLAC\FLAC.EXE
Additional command line options : -8 -V -T "ARTIST=%artist%" -T "TITLE=%title%" -T "ALBUM=%albumtitle%" -T "DATE=%year%" -T "TRACKNUMBER=%tracknr%" -T "GENRE=%genre%" -T "PERFORMER=%albuminterpret%" -T "COMPOSER=%composer%" %haslyrics%--tag-from-file=LYRICS="%lyricsfile%"%haslyrics% -T "ALBUMARTIST=%albumartist%" -T "DISCNUMBER=%cdnumber%" -T "TOTALDISCS=%totalcds%" -T "TOTALTRACKS=%numtracks%" -T "COMMENT=%comment%" %source% -o %dest%
TOC of the extracted CD
Track | Start | Length | Start sector | End sector
---------------------------------------------------------
1 | 0:00.33 | 3:50.00 | 33 | 17282
2 | 3:50.33 | 3:00.32 | 17283 | 30814
3 | 6:50.65 | 4:34.63 | 30815 | 51427
4 | 11:25.53 | 3:25.22 | 51428 | 66824
5 | 14:51.00 | 1:21.58 | 66825 | 72957
6 | 16:12.58 | 2:38.65 | 72958 | 84872
7 | 18:51.48 | 2:29.35 | 84873 | 96082
8 | 21:21.08 | 9:13.65 | 96083 | 137622
9 | 30:34.73 | 5:03.70 | 137623 | 160417
10 | 35:38.68 | 4:15.50 | 160418 | 179592
11 | 39:54.43 | 2:24.10 | 179593 | 190402
12 | 42:18.53 | 3:25.55 | 190403 | 205832
13 | 45:44.33 | 4:27.00 | 205833 | 225857
14 | 50:11.33 | 2:16.00 | 225858 | 236057
15 | 52:27.33 | 1:23.00 | 236058 | 242282
16 | 53:50.33 | 5:19.00 | 242283 | 266207
17 | 59:09.33 | 1:22.20 | 266208 | 272377
18 | 60:31.53 | 4:00.55 | 272378 | 290432
19 | 64:32.33 | 3:42.00 | 290433 | 307082
Track 1
Filename f:\Users\Guillermo\Desktop\EAC convertidos\01 Pista01.wav
Pre-gap length 0:00:02.44
Peak level 75.1 %
Extraction speed 1.6 X
Track quality 100.0 %
Test CRC F26A6477
Copy CRC F26A6477
Copy OK
Track 2
Filename f:\Users\Guillermo\Desktop\EAC convertidos\02 Pista02.wav
Peak level 89.0 %
Extraction speed 1.6 X
Track quality 100.0 %
Test CRC 7271FA81
Copy CRC 7271FA81
Copy OK
Track 3
Filename f:\Users\Guillermo\Desktop\EAC convertidos\03 Pista03.wav
Peak level 80.3 %
Extraction speed 1.9 X
Track quality 100.0 %
Test CRC A87DC7C1
Copy CRC A87DC7C1
Copy OK
Track 4
Filename f:\Users\Guillermo\Desktop\EAC convertidos\04 Pista04.wav
Peak level 84.7 %
Extraction speed 2.0 X
Track quality 100.0 %
Test CRC 49EEC4B8
Copy CRC 49EEC4B8
Copy OK
Track 5
Filename f:\Users\Guillermo\Desktop\EAC convertidos\05 Pista05.wav
Peak level 75.1 %
Extraction speed 1.5 X
Track quality 100.0 %
Test CRC FEB57C18
Copy CRC FEB57C18
Copy OK
Track 6
Filename f:\Users\Guillermo\Desktop\EAC convertidos\06 Pista06.wav
Peak level 89.8 %
Extraction speed 2.0 X
Track quality 100.0 %
Test CRC 1D979AE1
Copy CRC 1D979AE1
Copy OK
Track 7
Filename f:\Users\Guillermo\Desktop\EAC convertidos\07 Pista07.wav
Peak level 90.5 %
Extraction speed 1.6 X
Track quality 99.8 %
Test CRC 00E04DD3
Copy CRC 00E04DD3
Copy OK
Track 8
Filename f:\Users\Guillermo\Desktop\EAC convertidos\08 Pista08.wav
Pre-gap length 0:00:07.66
Peak level 84.9 %
Extraction speed 2.5 X
Track quality 99.9 %
Test CRC 98C98A3D
Copy CRC 98C98A3D
Copy OK
Track 9
Filename f:\Users\Guillermo\Desktop\EAC convertidos\09 Pista09.wav
Peak level 93.0 %
Extraction speed 2.7 X
Track quality 100.0 %
Test CRC 6E460EA3
Copy CRC 6E460EA3
Copy OK
Track 10
Filename f:\Users\Guillermo\Desktop\EAC convertidos\10 Pista10.wav
Peak level 86.7 %
Extraction speed 2.8 X
Track quality 100.0 %
Test CRC AEC98769
Copy CRC AEC98769
Copy OK
Track 11
Filename f:\Users\Guillermo\Desktop\EAC convertidos\11 Pista11.wav
Peak level 85.2 %
Extraction speed 2.5 X
Track quality 100.0 %
Test CRC A3D4285D
Copy CRC A3D4285D
Copy OK
Track 12
Filename f:\Users\Guillermo\Desktop\EAC convertidos\12 Pista12.wav
Peak level 88.1 %
Extraction speed 2.8 X
Track quality 100.0 %
Test CRC D4BE6FDD
Copy CRC D4BE6FDD
Copy OK
Track 13
Filename f:\Users\Guillermo\Desktop\EAC convertidos\13 Pista13.wav
Peak level 93.4 %
Extraction speed 3.1 X
Track quality 100.0 %
Test CRC 29845F62
Copy CRC 29845F62
Copy OK
Track 14
Filename f:\Users\Guillermo\Desktop\EAC convertidos\14 Pista14.wav
Pre-gap length 0:00:12.00
Peak level 78.6 %
Extraction speed 2.6 X
Track quality 100.0 %
Test CRC 436D0829
Copy CRC 436D0829
Copy OK
Track 15
Filename f:\Users\Guillermo\Desktop\EAC convertidos\15 Pista15.wav
Peak level 60.1 %
Extraction speed 2.3 X
Track quality 100.0 %
Test CRC 13811360
Copy CRC 13811360
Copy OK
Track 16
Filename f:\Users\Guillermo\Desktop\EAC convertidos\16 Pista16.wav
Peak level 79.6 %
Extraction speed 2.9 X
Track quality 99.9 %
Test CRC 5F1C37FA
Copy CRC 5F1C37FA
Copy OK
Track 17
Filename f:\Users\Guillermo\Desktop\EAC convertidos\17 Pista17.wav
Peak level 57.8 %
Extraction speed 2.4 X
Track quality 100.0 %
Test CRC 3C9A8817
Copy CRC 3C9A8817
Copy OK
Track 18
Filename f:\Users\Guillermo\Desktop\EAC convertidos\18 Pista18.wav
Peak level 73.7 %
Extraction speed 3.3 X
Track quality 100.0 %
Test CRC 2599D031
Copy CRC 2599D031
Copy OK
Track 19
Filename f:\Users\Guillermo\Desktop\EAC convertidos\19 Pista19.wav
Peak level 78.3 %
Extraction speed 3.3 X
Track quality 100.0 %
Test CRC 9793B526
Copy CRC 9793B526
Copy OK
No errors occurred
End of status report
==== Log checksum 7DBDB2ACDBE02348E154360AEC4A5166148A9026F9E5316C0D0B8074F0424B9B ====

Лог создания рипа CD 2

Exact Audio Copy V1.0 beta 3 from 29. August 2011
EAC extraction logfile from 9. January 2016, 15:36
Artista desconocido / Título desconocido
Used drive : HL-DT-STDVDRAM GH24NSC0 Adapter: 3 ID: 0
Read mode : Secure
Utilize accurate stream : Yes
Defeat audio cache : Yes
Make use of C2 pointers : No
Read offset correction : 6
Overread into Lead-In and Lead-Out : No
Fill up missing offset samples with silence : Yes
Delete leading and trailing silent blocks : No
Null samples used in CRC calculations : Yes
Used interface : Native Win32 interface for Win NT & 2000
Gap handling : Appended to previous track
Used output format : User Defined Encoder
Selected bitrate : 768 kBit/s
Quality : High
Add ID3 tag : No
Command line compressor : C:\Program Files (x86)\Exact Audio Copy\FLAC\FLAC.EXE
Additional command line options : -8 -V -T "ARTIST=%artist%" -T "TITLE=%title%" -T "ALBUM=%albumtitle%" -T "DATE=%year%" -T "TRACKNUMBER=%tracknr%" -T "GENRE=%genre%" -T "PERFORMER=%albuminterpret%" -T "COMPOSER=%composer%" %haslyrics%--tag-from-file=LYRICS="%lyricsfile%"%haslyrics% -T "ALBUMARTIST=%albumartist%" -T "DISCNUMBER=%cdnumber%" -T "TOTALDISCS=%totalcds%" -T "TOTALTRACKS=%numtracks%" -T "COMMENT=%comment%" %source% -o %dest%
TOC of the extracted CD
Track | Start | Length | Start sector | End sector
---------------------------------------------------------
1 | 0:00.33 | 4:38.00 | 33 | 20882
2 | 4:38.33 | 7:24.00 | 20883 | 54182
3 | 12:02.33 | 2:32.57 | 54183 | 65639
4 | 14:35.15 | 4:51.18 | 65640 | 87482
5 | 19:26.33 | 3:00.62 | 87483 | 101044
6 | 22:27.20 | 3:18.55 | 101045 | 115949
7 | 25:46.00 | 8:10.73 | 115950 | 152772
8 | 33:56.73 | 4:04.10 | 152773 | 171082
9 | 38:01.08 | 2:26.05 | 171083 | 182037
10 | 40:27.13 | 3:19.70 | 182038 | 197032
11 | 43:47.08 | 3:23.25 | 197033 | 212282
12 | 47:10.33 | 1:53.12 | 212283 | 220769
13 | 49:03.45 | 1:42.30 | 220770 | 228449
14 | 50:46.00 | 5:05.00 | 228450 | 251324
15 | 55:51.00 | 5:30.33 | 251325 | 276107
Track 1
Filename f:\Users\Guillermo\Desktop\EAC convertidos\01 Pista01.wav
Pre-gap length 0:00:02.44
Peak level 87.5 %
Extraction speed 1.5 X
Track quality 100.0 %
Test CRC 711F9BD6
Copy CRC 711F9BD6
Copy OK
Track 2
Filename f:\Users\Guillermo\Desktop\EAC convertidos\02 Pista02.wav
Peak level 85.3 %
Extraction speed 1.9 X
Track quality 100.0 %
Test CRC 652C1C49
Copy CRC 652C1C49
Copy OK
Track 3
Filename f:\Users\Guillermo\Desktop\EAC convertidos\03 Pista03.wav
Pre-gap length 0:00:13.00
Peak level 77.7 %
Extraction speed 1.7 X
Track quality 100.0 %
Test CRC B3F94FF9
Copy CRC B3F94FF9
Copy OK
Track 4
Filename f:\Users\Guillermo\Desktop\EAC convertidos\04 Pista04.wav
Peak level 77.0 %
Extraction speed 1.8 X
Track quality 99.9 %
Test CRC 0B2ED0BC
Copy CRC 0B2ED0BC
Copy OK
Track 5
Filename f:\Users\Guillermo\Desktop\EAC convertidos\05 Pista05.wav
Peak level 84.1 %
Extraction speed 2.0 X
Track quality 100.0 %
Test CRC 259B8092
Copy CRC 259B8092
Copy OK
Track 6
Filename f:\Users\Guillermo\Desktop\EAC convertidos\06 Pista06.wav
Peak level 93.7 %
Extraction speed 2.1 X
Track quality 100.0 %
Test CRC D86E07B0
Copy CRC D86E07B0
Copy OK
Track 7
Filename f:\Users\Guillermo\Desktop\EAC convertidos\07 Pista07.wav
Peak level 84.7 %
Extraction speed 2.6 X
Track quality 100.0 %
Test CRC 3D81C5C8
Copy CRC 3D81C5C8
Copy OK
Track 8
Filename f:\Users\Guillermo\Desktop\EAC convertidos\08 Pista08.wav
Peak level 88.8 %
Extraction speed 2.5 X
Track quality 100.0 %
Test CRC D4F0FA8F
Copy CRC D4F0FA8F
Copy OK
Track 9
Filename f:\Users\Guillermo\Desktop\EAC convertidos\09 Pista09.wav
Pre-gap length 0:00:05.66
Peak level 68.4 %
Extraction speed 2.3 X
Track quality 100.0 %
Test CRC FD4B8A31
Copy CRC FD4B8A31
Copy OK
Track 10
Filename f:\Users\Guillermo\Desktop\EAC convertidos\10 Pista10.wav
Peak level 85.8 %
Extraction speed 2.5 X
Track quality 100.0 %
Test CRC D22BF4E2
Copy CRC D22BF4E2
Copy OK
Track 11
Filename f:\Users\Guillermo\Desktop\EAC convertidos\11 Pista11.wav
Peak level 71.2 %
Extraction speed 2.2 X
Track quality 99.8 %
Test CRC E97A8894
Copy CRC E97A8894
Copy OK
Track 12
Filename f:\Users\Guillermo\Desktop\EAC convertidos\12 Pista12.wav
Peak level 72.2 %
Extraction speed 2.3 X
Track quality 100.0 %
Test CRC 1ECA7B45
Copy CRC 1ECA7B45
Copy OK
Track 13
Filename f:\Users\Guillermo\Desktop\EAC convertidos\13 Pista13.wav
Peak level 80.3 %
Extraction speed 2.2 X
Track quality 100.0 %
Test CRC 16D64BEB
Copy CRC 16D64BEB
Copy OK
Track 14
Filename f:\Users\Guillermo\Desktop\EAC convertidos\14 Pista14.wav
Peak level 81.6 %
Extraction speed 3.0 X
Track quality 100.0 %
Test CRC 44A523A3
Copy CRC 44A523A3
Copy OK
Track 15
Filename f:\Users\Guillermo\Desktop\EAC convertidos\15 Pista15.wav
Peak level 84.3 %
Extraction speed 3.2 X
Track quality 100.0 %
Test CRC 51FBBEFC
Copy CRC 51FBBEFC
Copy OK
No errors occurred
End of status report
==== Log checksum 55A31D46D0124FA8EDADB69747E299023F2A750C699BBFBC66E97926AC1CBE95 ====

Содержание индексной карты (.CUE)Содержание индексной карты (.CUE) CD 1

REM DISCID 040FFE13REM COMMENT "ExactAudioCopy v1.0b3"FILE "01 Pista01.wav" WAVE TRACK 01 AUDIO PREGAP 00:00:33 INDEX 01 00:00:00FILE "02 Pista02.wav" WAVE TRACK 02 AUDIO INDEX 01 00:00:00FILE "03 Pista03.wav" WAVE TRACK 03 AUDIO INDEX 01 00:00:00FILE "04 Pista04.wav" WAVE TRACK 04 AUDIO INDEX 01 00:00:00FILE "05 Pista05.wav" WAVE TRACK 05 AUDIO INDEX 01 00:00:00FILE "06 Pista06.wav" WAVE TRACK 06 AUDIO INDEX 01 00:00:00FILE "07 Pista07.wav" WAVE TRACK 07 AUDIO INDEX 01 00:00:00 TRACK 08 AUDIO INDEX 00 02:21:60FILE "08 Pista08.wav" WAVE INDEX 01 00:00:00FILE "09 Pista09.wav" WAVE TRACK 09 AUDIO INDEX 01 00:00:00FILE "10 Pista10.wav" WAVE TRACK 10 AUDIO INDEX 01 00:00:00FILE "11 Pista11.wav" WAVE TRACK 11 AUDIO INDEX 01 00:00:00FILE "12 Pista12.wav" WAVE TRACK 12 AUDIO INDEX 01 00:00:00FILE "13 Pista13.wav" WAVE TRACK 13 AUDIO INDEX 01 00:00:00 TRACK 14 AUDIO INDEX 00 04:15:00FILE "14 Pista14.wav" WAVE INDEX 01 00:00:00FILE "15 Pista15.wav" WAVE TRACK 15 AUDIO INDEX 01 00:00:00FILE "16 Pista16.wav" WAVE TRACK 16 AUDIO INDEX 01 00:00:00FILE "17 Pista17.wav" WAVE TRACK 17 AUDIO INDEX 01 00:00:00FILE "18 Pista18.wav" WAVE TRACK 18 AUDIO INDEX 01 00:00:00FILE "19 Pista19.wav" WAVE TRACK 19 AUDIO INDEX 01 00:00:00

Содержание индексной карты (.CUE) CD 2

REM DISCID E20E610FREM COMMENT "ExactAudioCopy v1.0b3"FILE "01 Pista01.wav" WAVE TRACK 01 AUDIO PREGAP 00:00:33 INDEX 01 00:00:00FILE "02 Pista02.wav" WAVE TRACK 02 AUDIO INDEX 01 00:00:00 TRACK 03 AUDIO INDEX 00 07:11:00FILE "03 Pista03.wav" WAVE INDEX 01 00:00:00FILE "04 Pista04.wav" WAVE TRACK 04 AUDIO INDEX 01 00:00:00FILE "05 Pista05.wav" WAVE TRACK 05 AUDIO INDEX 01 00:00:00FILE "06 Pista06.wav" WAVE TRACK 06 AUDIO INDEX 01 00:00:00FILE "07 Pista07.wav" WAVE TRACK 07 AUDIO INDEX 01 00:00:00FILE "08 Pista08.wav" WAVE TRACK 08 AUDIO INDEX 01 00:00:00 TRACK 09 AUDIO INDEX 00 03:58:35FILE "09 Pista09.wav" WAVE INDEX 01 00:00:00FILE "10 Pista10.wav" WAVE TRACK 10 AUDIO INDEX 01 00:00:00FILE "11 Pista11.wav" WAVE TRACK 11 AUDIO INDEX 01 00:00:00FILE "12 Pista12.wav" WAVE TRACK 12 AUDIO INDEX 01 00:00:00FILE "13 Pista13.wav" WAVE TRACK 13 AUDIO INDEX 01 00:00:00FILE "14 Pista14.wav" WAVE TRACK 14 AUDIO INDEX 01 00:00:00FILE "15 Pista15.wav" WAVE TRACK 15 AUDIO INDEX 01 00:00:00

Треклист




Показать сообщения:    

Текущее время: 10-Дек 15:41

Часовой пояс: UTC + 3


Вы не можете начинать темы
Вы не можете отвечать на сообщения
Вы не можете редактировать свои сообщения
Вы не можете удалять свои сообщения
Вы не можете голосовать в опросах
Вы не можете прикреплять файлы к сообщениям
Вы не можете скачивать файлы