(vocal, classical) Gustav Mahler - Das Lied Von Der Erde - The Song of The Earth (Peter Schreier; Jard Van Nes; Frankfurt Radio Symphony Orchestra - Eliahu Inbal) - 1988, FLAC (image+.cue) lossless


 

[Цитировать]

Gustav Mahler - Das Lied Von Der Erde - The Song of The Earth - Песнь о Земле- Жанр: vocal, classical
Страна-производитель диска: Japan
Год издания диска: 1988
Издатель (лейбл): DENON
Номер по каталогу: CO-72605
Дата записи: 1988
Аудиокодек: FLAC
Тип рипа: image+.cue
Битрейт аудио: lossless
Продолжительность: 01:01:41
Источник: DC++
Наличие сканов в содержимом раздачи: нет
Треклист:
I. Das Trinklied vom Jammer der Erde (Застольная песня о земных горестях)
II. Der Einsame im Herbst (Одиночество осенью)
III. Von der Jugend (О юности)
IV. Von der Schonheit (О красоте)
V. Der Trunkene im Fruhling (Пьяница весной)
VI. Der Abschied (Прощание)Исполнители:Peter Schreier - tenor / Jard Van Nes - mezzo soprano
Frankfurt Radio Symphony Orchestra - Eliahu Inbal-

Лог создания рипа

Exact Audio Copy V1.0 beta 3 from 29. August 2011
Journal d'extraction EAC depuis 10. Octobre 2012, 13:41
Gustav Mahler / Das Lied von der Erde (Peter Schreier, Jard van Nes)
Lecteur utilisé : HL-DT-STDVD-RW_GSA-H11N Adapter: 0 ID: 0
Mode lecture : : VérouillerUtiliser flux précis : OuiVider le cache audio : NonUtiliser les pointeurs C2 : Oui
Correction offset écriture : : 667Lecture étendue en lead-in et lead-out : NonRemplacer les samples manquants par du silence : OuiEffacer les blocs silencieux situés en début et fin : NonÉchantillons null utilisés dans les calculs CRC : OuiInterface utilisée : Interface native Win32 pour Win NT & 2000
Format de sortie utilisé : : Encodeur défini par l'utilisateurDébit choisi : 768 kBit/sQualité : HautAjouter ID3 tag : NonLigne de commande du compresseur : C:\Program Files\Exact Audio Copy\FLAC\FLAC.EXEOptions de commande additionnelle : : -6 -V -T "ARTIST=%artist%" -T "TITLE=%title%" -T "ALBUM=%albumtitle%" -T "DATE=%year%" -T "TRACKNUMBER=%tracknr%" -T "GENRE=%genre%" -T "COMMENT=%comment%" -T "BAND=%albuminterpret%" -T "ALBUMARTIST=%albuminterpret%" -T "COMPOSER=%composer%" %haslyrics%--tag-from-file=LYRICS="%lyricsfile%"%haslyrics% -T "DISCNUMBER=%cdnumber%" -T "TOTALDISCS=%totalcds%" -T "TOTALTRACKS=%numtracks%" %hascover%--picture="%coverfile%"%hascover% %source% -o %dest%
TOC du CD extrait
Track | Démarrer | Longueur | Secteur de début | Secteur de fin ----------------------------------------------------------------- 1 | 0:00.00 | 8:22.45 | 0 | 37694 2 | 8:22.45 | 9:36.20 | 37695 | 80914 3 | 17:58.65 | 3:16.70 | 80915 | 95684 4 | 21:15.60 | 7:20.33 | 95685 | 128717 5 | 28:36.18 | 4:28.22 | 128718 | 148839 6 | 33:04.40 | 28:36.30 | 148840 | 277569
Propriétés États et Erreurs
Gammes sélectionnées
Nom fichier F:\MUSIQUE S 2\ZZZ-MES_RIPS\Gustav Mahler - Das Lied von der Erde (Peter Schreier, Jard van Nes).wav
Niveau max 78.0 % Vitesse d'extraction 27.6 X qualité intervalle 100.0 % Copie CRC 630C02ED Copie Ok
Pas d'erreur apparue
Résumé AccurateRip
Piste 1 extrait avec exactitude (confiance 8) [9536B53C] (AR v1)Piste 2 extrait avec exactitude (confiance 8) [3EFB2201] (AR v1)Piste 3 extrait avec exactitude (confiance 8) [0BC1901D] (AR v1)Piste 4 extrait avec exactitude (confiance 8) [0EE93195] (AR v1)Piste 5 extrait avec exactitude (confiance 8) [8C532A2E] (AR v1)Piste 6 extrait avec exactitude (confiance 8) [C0926508] (AR v1)
Toutes pistes extraites exactement
Fin du rapport d'état

Лог проверки качества

AUDIOCHECKER v2.0 beta (build 457) - by Dester - opdester@freemail.hu~~~~~~~~~~~~~~~~~~~~~~~~~~~~~~~~~~-=== DO NOT EDIT THIS FILE! ===-
Path: ...\Mahler - Das Lied von der Erde (Schreier, van Nes)
1 -=- Gustav Mahler - Das Lied von der Erde (Peter Schreier, Jard van Nes).flac -=- CDDA (100%)
154293524

Скриншот спектра частот

Доп. информация: recordered: 24-25 March 1988 Alte Oper, Frankfurt



Показать сообщения:    

Текущее время: 04-Дек 09:02

Часовой пояс: UTC + 3


Вы не можете начинать темы
Вы не можете отвечать на сообщения
Вы не можете редактировать свои сообщения
Вы не можете удалять свои сообщения
Вы не можете голосовать в опросах
Вы не можете прикреплять файлы к сообщениям
Вы не можете скачивать файлы