Как Чарли Чаплин Стал Бродягой / La naissance de Charlot (Серж Бромберг / Serge Bromberg, Эрик Ланж / Eric Lange) [2013, Документальный, HDTVRip-AVC] MVO (Эй Би Видео)


Статистика раздачи [Обновить пиров]
Размер:  810 MB   |    Зарегистрирован:  1 год   |    Скачан:  0 раз
Сидов:  9  [  0 KB/s  ]   Личеров:  3  [  0 KB/s  ]   Подробная статистика пиров
 
   
 
 

[Цитировать]

Как Чарли Чаплин Стал Бродягой / La naissance de Charlot- Год выпуска: 2013
Страна: Франция | Великобритания | Arte France
Жанр: Документальный
Продолжительность: 1:00:05
Перевод: Профессиональный (многоголосый закадровый) | "Эй Би Видео" по заказу "Первого Канала"
Режиссер: Серж Бромберг / Serge Bromberg, Эрик Ланж / Eric Lange-Описание: Очень многое уже рассказано о легенде Чарли Чаплина. Но как же все-таки вышло, что дитя улицы, родившийся в одном из самых неблагополучных кварталов Лондона, за столь короткий срок стал самым знаменитым человеком в мире? Как едва зародившееся кино вышло за пределы мюзик-холлов и водевилей и за короткий срок прошло путь от ярмарочного развлечения до индустрии, делающей состояния и создающей знаменитостей практически мгновенно?- -Автор рипа: lrn
Автор записи: Alexin29
Сэмпл: sendfile-Тип релиза: HDTVRip-AVC
Контейнер: MKV
Видео: 1024x576 (16:9), 25,000 fps, H264, ~1500 kbps avg, ~0.102 bit/pixel
Аудио: 48 kHz, AC3 Dolby Digital, 3/2 (L,C,R,l,r) + LFE ch, ~384.00 kbps avg-

MediaInfo

GeneralUnique ID : 173213823902093452618012186316228786561 (0x824FC4DEB921EDB290638C95B0D7F981)Complete name : E:\uTorrent.Temp\Temp\La.naissance.de.Charlot.2013.HDTVRip-AVC.x264-RUS-lrn.mkvFormat : MatroskaFormat version : Version 4 / Version 2File size : 810 MiBDuration : 1h 0mnOverall bit rate : 1 885 KbpsMovie name : La.naissance.de.Charlot.2013.HDTV.720p.x264-RUS-lrnEncoded date : UTC 2010-02-22 21:41:31Writing application : mkvmerge v5.9.0 ('On The Loose') built on Dec 9 2012 15:37:01Writing library : libebml v1.3.0 + libmatroska v1.4.0
VideoID : 1Format : AVCFormat/Info : Advanced Video CodecFormat profile : High@L4.1Format settings, CABAC : YesFormat settings, ReFrames : 8 framesCodec ID : V_MPEG4/ISO/AVCDuration : 1h 0mnBit rate : 1 500 KbpsWidth : 1 024 pixelsHeight : 576 pixelsDisplay aspect ratio : 16:9Frame rate mode : ConstantFrame rate : 25.000 fpsColor space : YUVChroma subsampling : 4:2:0Bit depth : 8 bitsScan type : ProgressiveBits/(Pixel*Frame) : 0.102Stream size : 629 MiB (78%)Writing library : x264 core 148 r2638 7599210Encoding settings : cabac=1 / ref=8 / deblock=1:-3:-3 / analyse=0x3:0x133 / me=umh / subme=9 / psy=1 / psy_rd=1.00:0.00 / mixed_ref=1 / me_range=32 / chroma_me=1 / trellis=2 / 8x8dct=1 / cqm=0 / deadzone=21,11 / fast_pskip=1 / chroma_qp_offset=-2 / threads=12 / lookahead_threads=2 / sliced_threads=0 / nr=0 / decimate=1 / interlaced=0 / bluray_compat=0 / constrained_intra=0 / bframes=8 / b_pyramid=2 / b_adapt=2 / b_bias=0 / direct=3 / weightb=1 / open_gop=0 / weightp=2 / keyint=250 / keyint_min=25 / scenecut=40 / intra_refresh=0 / rc_lookahead=50 / rc=2pass / mbtree=1 / bitrate=1500 / ratetol=1.0 / qcomp=0.60 / qpmin=0 / qpmax=69 / qpstep=4 / cplxblur=20.0 / qblur=0.5 / vbv_maxrate=62500 / vbv_bufsize=78125 / nal_hrd=none / filler=0 / ip_ratio=1.40 / aq=1:1.00Default : YesForced : NoStatistics Tags Issue : mkvmerge v8.5.2 ('Crosses') 32bit 2016-01-17 06:39:04 / mkvmerge v5.9.0 ('On The Loose') built on Dec 9 2012 15:37:01 2010-02-22 21:41:31FromStats_BitRate : 1499695FromStats_Duration : 01:00:05.000000000FromStats_FrameCount : 90125FromStats_StreamSize : 675800316
AudioID : 2Format : AC-3Format/Info : Audio Coding 3Mode extension : CM (complete main)Format settings, Endianness : BigCodec ID : A_AC3Duration : 1h 0mnBit rate mode : ConstantBit rate : 384 KbpsChannel(s) : 6 channelsChannel positions : Front: L C R, Side: L R, LFESampling rate : 48.0 KHzFrame rate : 31.250 fps (1536 spf)Compression mode : LossyStream size : 165 MiB (20%)Language : RussianDefault : YesForced : No

x264 log

raw [info]: 1024x576p 1:1 @ 25/1 fps (cfr)x264 [info]: using SAR=1/1x264 [info]: using cpu capabilities: MMX2 SSE2Fast SSSE3 SSE4.2 AVXx264 [info]: profile High, level 4.1x264 [info]: frame I:563 Avg QP:20.06 size: 50119x264 [info]: frame P:21176 Avg QP:23.32 size: 14786x264 [info]: frame B:68386 Avg QP:24.82 size: 4891x264 [info]: consecutive B-frames: 2.4% 1.9% 4.3% 48.8% 13.7% 16.6% 6.3% 4.6% 1.4%x264 [info]: mb I I16..4: 11.3% 74.3% 14.5%x264 [info]: mb P I16..4: 1.3% 9.1% 0.9% P16..4: 36.2% 12.8% 9.3% 0.2% 0.0% skip:30.2%x264 [info]: mb B I16..4: 0.1% 0.9% 0.1% B16..8: 25.3% 6.1% 1.5% direct: 4.3% skip:61.6% L0:44.5% L1:46.6% BI: 9.0%x264 [info]: 8x8 transform intra:80.3% inter:75.3%x264 [info]: direct mvs spatial:97.4% temporal:2.6%x264 [info]: coded y,uvDC,uvAC intra: 67.2% 14.8% 3.7% inter: 18.7% 4.2% 0.1%x264 [info]: i16 v,h,dc,p: 60% 15% 6% 20%x264 [info]: i8 v,h,dc,ddl,ddr,vr,hd,vl,hu: 12% 7% 20% 7% 11% 12% 11% 10% 10%x264 [info]: i4 v,h,dc,ddl,ddr,vr,hd,vl,hu: 15% 7% 3% 8% 14% 15% 13% 12% 12%x264 [info]: i8c dc,h,v,p: 75% 15% 7% 2%x264 [info]: Weighted P-Frames: Y:30.8% UV:2.6%x264 [info]: ref P L0: 43.7% 14.1% 14.9% 7.2% 5.7% 4.9% 4.5% 3.2% 1.6% 0.2%x264 [info]: ref B L0: 72.1% 11.3% 6.7% 3.6% 3.0% 2.0% 1.3%x264 [info]: ref B L1: 94.3% 5.7%x264 [info]: kb/s:1499.69encoded 90125 frames, 28.61 fps, 1499.69 kb/s

Скриншоты

-
[teatrix.ru].t12870.torrent 
Торрент: Зарегистрирован [ 2016-01-17 19:30 ] · F0DE4AD840374ACA99CAB04AF97B66D439BFD707

Скачать .torrent

Скачать

16 KB

Статус: проверено
Скачан: 0 раз
Размер: 810 MB
terms.php



Показать сообщения:    

Текущее время: 24-Янв 12:14

Часовой пояс: UTC + 3


Вы не можете начинать темы
Вы не можете отвечать на сообщения
Вы не можете редактировать свои сообщения
Вы не можете удалять свои сообщения
Вы не можете голосовать в опросах
Вы не можете прикреплять файлы к сообщениям
Вы можете скачивать файлы