(Classical/Piano/Solo) Chopin: Nocturnes (Andrei Gavrilov / Андрей Гаврилов) [диск-приложение к книге] - 2013, FLAC (tracks+.cue) lossless


 

[Цитировать]

Andrei Gavrilov — Frederic Chopin: Nocturnes-Classical/Piano/Solo • Fazioli • 2013 • lossless • FLAC • tracks+.cue • 00:48:14 • what.cd-01. Nocturne in B flat mi, Op. 9 No. 1
02. Nocturne in D flat ma, Op. 27 No. 2
03. Nocturne in C sharp mi, KKIVa
04. Nocturne in F sharp mi, Op. 15 No. 2
05. Nocturne in B ma, Op. 32 No. 1
06. Nocturne in F ma, Op. 15 No. 1
07. Nocturne in F mi, Op. 55 No. 1
08. Nocturne in A flat mi, Op. 32 No. 2
09. Nocturne in C mi, Op. 48 No. 1
-Andrei Gavrilov - piano-Специально для своей книги "Чайник, Фира и Андрей" её автор, Андрей Гаврилов, записал диск с композициями Шопена в собственном исполнении. Запись была произведена в Италии, на студии-фабрике знаменитого Фациоле, на одном из его уникальных инструментов. Диск прилагается к книге, чтобы, слушая его во время чтения, каждый смог максимально погрузиться в музыкальную атмосферу.-

cue

REM GENRE Classical
REM DATE 2013
REM DISCID 7B0B4E09
REM COMMENT "ExactAudioCopy v0.99pb4"
PERFORMER "Andrei Gavrilov"
TITLE "Frederic Chopin "
FILE "Nocturne in B flat mi, Op. 9 No. 1.wav" WAVE
TRACK 01 AUDIO
TITLE "Nocturne in B flat mi, Op. 9 No. 1"
PERFORMER "Andrei Gavrilov"
FLAGS DCP
INDEX 01 00:00:00
FILE "Nocturne in D flat ma, Op. 27 No. 2.wav" WAVE
TRACK 02 AUDIO
TITLE "Nocturne in D flat ma, Op. 27 No. 2"
PERFORMER "Andrei Gavrilov"
FLAGS DCP
INDEX 01 00:00:00
TRACK 03 AUDIO
TITLE "Nocturne in C sharp mi, KKIVa"
PERFORMER "Andrei Gavrilov"
FLAGS DCP
INDEX 00 06:28:04
FILE "Nocturne in C sharp mi, KKIVa.wav" WAVE
INDEX 01 00:00:00
TRACK 04 AUDIO
TITLE "Nocturne in F sharp mi, Op. 15 No. 2"
PERFORMER "Andrei Gavrilov"
FLAGS DCP
INDEX 00 04:38:63
FILE "Nocturne in F sharp mi, Op. 15 No. 2.wav" WAVE
INDEX 01 00:00:00
TRACK 05 AUDIO
TITLE "Nocturne in B ma, Op. 32 No. 1"
PERFORMER "Andrei Gavrilov"
FLAGS DCP
INDEX 00 03:17:63
FILE "Nocturne in B ma, Op. 32 No. 1.wav" WAVE
INDEX 01 00:00:00
TRACK 06 AUDIO
TITLE "Nocturne in F ma, Op. 15 No. 1"
PERFORMER "Andrei Gavrilov"
FLAGS DCP
INDEX 00 05:16:65
FILE "Nocturne in F ma, Op. 15 No. 1.wav" WAVE
INDEX 01 00:00:00
TRACK 07 AUDIO
TITLE "Nocturne in F mi, Op. 55 No. 1"
PERFORMER "Andrei Gavrilov"
FLAGS DCP
INDEX 00 04:30:69
FILE "Nocturne in F mi, Op. 55 No. 1.wav" WAVE
INDEX 01 00:00:00
TRACK 08 AUDIO
TITLE "Nocturne in A flat mi, Op. 32 No. 2"
PERFORMER "Andrei Gavrilov"
FLAGS DCP
INDEX 00 04:43:56
FILE "Nocturne in A flat mi, Op. 32 No. 2.wav" WAVE
INDEX 01 00:00:00
TRACK 09 AUDIO
TITLE "Nocturne in C mi, Op. 48 No. 1"
PERFORMER "Andrei Gavrilov"
FLAGS DCP
INDEX 00 06:23:35
FILE "Nocturne in C mi, Op. 48 No. 1.wav" WAVE
INDEX 01 00:00:00

EAC

Exact Audio Copy V0.99 prebeta 4 from 23. January 2008
EAC extraction logfile from 8. June 2014, 17:37
Andrei Gavrilov / Frederic Chopin
Used drive : Optiarc DVD RW AD-7280S Adapter: 3 ID: 0
Read mode : Burst
Read offset correction : 48
Overread into Lead-In and Lead-Out : No
Fill up missing offset samples with silence : Yes
Delete leading and trailing silent blocks : No
Null samples used in CRC calculations : No
Used interface : Native Win32 interface for Win NT & 2000
Gap handling : Not detected, thus appended to previous track
Used output format : User Defined Encoder
Selected bitrate : 768 kBit/s
Quality : High
Add ID3 tag : No
Command line compressor : C:\Program Files\Exact Audio Copy\FLAC\FLAC.EXE
Additional command line options : -6 -V -T "ARTIST=%a" -T "TITLE=%t" -T "ALBUM=%g" -T "DATE=%y" -T "TRACKNUMBER=%n" -T "GENRE=%m" -T "COMMENT=%e" %s -o %d
TOC of the extracted CD
Track | Start | Length | Start sector | End sector
---------------------------------------------------------
1 | 0:00.00 | 6:14.36 | 0 | 28085
2 | 6:14.36 | 6:30.07 | 28086 | 57342
3 | 12:44.43 | 4:42.07 | 57343 | 78499
4 | 17:26.50 | 3:20.07 | 78500 | 93506
5 | 20:46.57 | 5:20.07 | 93507 | 117513
6 | 26:06.64 | 4:34.07 | 117514 | 138070
7 | 30:40.71 | 4:45.07 | 138071 | 159452
8 | 35:26.03 | 6:24.07 | 159453 | 188259
9 | 41:50.10 | 6:23.65 | 188260 | 217049
Track 1
Filename D:\Placebo\Nocturne in B flat mi, Op. 9 No. 1.wav
Timing problem 0:00:27
Timing problem 0:00:54
Peak level 61.0 %
Copy CRC 8647C283
Track not present in AccurateRip database
Copy finished
Track 2
Filename D:\Placebo\Nocturne in D flat ma, Op. 27 No. 2.wav
Peak level 66.2 %
Copy CRC DC6AA8FA
Track not present in AccurateRip database
Copy OK
Track 3
Filename D:\Placebo\Nocturne in C sharp mi, KKIVa.wav
Peak level 69.0 %
Copy CRC 5C60FAA2
Track not present in AccurateRip database
Copy OK
Track 4
Filename D:\Placebo\Nocturne in F sharp mi, Op. 15 No. 2.wav
Peak level 75.3 %
Copy CRC A973E088
Track not present in AccurateRip database
Copy OK
Track 5
Filename D:\Placebo\Nocturne in B ma, Op. 32 No. 1.wav
Peak level 66.7 %
Copy CRC 4F557F15
Track not present in AccurateRip database
Copy OK
Track 6
Filename D:\Placebo\Nocturne in F ma, Op. 15 No. 1.wav
Peak level 77.8 %
Copy CRC CDC6FB84
Track not present in AccurateRip database
Copy OK
Track 7
Filename D:\Placebo\Nocturne in F mi, Op. 55 No. 1.wav
Peak level 77.2 %
Copy CRC BC879C89
Track not present in AccurateRip database
Copy OK
Track 8
Filename D:\Placebo\Nocturne in A flat mi, Op. 32 No. 2.wav
Peak level 60.8 %
Copy CRC 06DE4565
Track not present in AccurateRip database
Copy OK
Track 9
Filename D:\Placebo\Nocturne in C mi, Op. 48 No. 1.wav
Peak level 96.9 %
Copy CRC A15C0E21
Track not present in AccurateRip database
Copy OK
None of the tracks are present in the AccurateRip database
No errors occurred
End of status report



Показать сообщения:    

Текущее время: 08-Дек 19:10

Часовой пояс: UTC + 3


Вы не можете начинать темы
Вы не можете отвечать на сообщения
Вы не можете редактировать свои сообщения
Вы не можете удалять свои сообщения
Вы не можете голосовать в опросах
Вы не можете прикреплять файлы к сообщениям
Вы не можете скачивать файлы