Любить, пить и петь / Aimer, boire et chanter (Ален Рене / Alain Resnais) [2014, Франция, драма, сценическое представление, арт-хаус, HDRip] VO + Sub Rus + Original Fre


 

[Цитировать]

Любить, пить и петь / Aimer, boire et chanter Страна: Франция
Жанр: драма, сценическое представление, арт-хаус
Год выпуска: 2014
Продолжительность: 01:48:06
Перевод 1: Одноголосый закадровый - Lord32x
Перевод 2: Субтитры. Автор - Playball
Cубтитры: русские
Оригинальная аудиодорожка: французская
Режиссер: Ален Рене / Alain Resnais
В ролях: Сабин Азема, Сандрин Киберлэн, Каролин Сиоль, Андре Дюссолье, Ипполит Жирардо, Мишель Вюйермоз, Альба Гайя Крагеде Беллуджи, Жерар Лартиго.
Описание: Великобритания, Йоркшир. В разгар репетиций новой пьесы исполнители-любители Колин и Кэтрин получают печальное известие, что их друг Джордж болен и жить ему осталось несколько месяцев. Жизнь разваливается на глазах, и не только у Кэтрин, которая когда-то была партнершей Джорджа, но и у ее подруг Тамары и Моники. К большому сожалению для их респектабельных мужей, женщины принимаются спорить, кому из них дозволено сопровождать Джорджа в его последнем путешествии.

Исходник - aimer.boire.et.chanter.2014.french.1080p.bluray.x264-rough с фр. трекера

Качество видео: HDRip
Формат видео: AVI
Видео: 720x304 (2.37:1), 23.976 fps, XviD MPEG-4 ~1970 kbps avg, 0.38 bit/pixel
Аудио 1: 48 kHz, AC3 Dolby Digital, 3/2 (L,C,R,l,r) + LFE ch, ~448 kbps - Rus
Аудио 2: 48 kHz, AC3 Dolby Digital, 3/2 (L,C,R,l,r) + LFE ch, ~448 kbps - Fra
Формат субтитров: softsub (SRT)

MediaInfo

General
Complete name : D:\Public\Aimer.Boire.Et.Chanter.2014.HDRip.Rus-Fra-Subs\aimer.boire.et.chanter.2014.hdrip.rus-fra.avi
Format : AVI
Format/Info : Audio Video Interleave
Format profile : OpenDML
File size : 2.17 GiB
Duration : 1h 48mn
Overall bit rate : 2 873 Kbps
Writing application : VirtualDubMod 1.5.10.2 (build 2542/release)
Writing library : VirtualDubMod build 2542/release
Video
ID : 0
Format : MPEG-4 Visual
Format profile : Advanced Simple@L5
Format settings, BVOP : 1
Format settings, QPel : No
Format settings, GMC : No warppoints
Format settings, Matrix : Custom
Codec ID : XVID
Codec ID/Hint : XviD
Duration : 1h 48mn
Bit rate : 1 960 Kbps
Width : 720 pixels
Height : 304 pixels
Display aspect ratio : 2.35:1
Frame rate : 23.976 fps
Color space : YUV
Chroma subsampling : 4:2:0
Bit depth : 8 bits
Scan type : Progressive
Compression mode : Lossy
Bits/(Pixel*Frame) : 0.373
Stream size : 1.48 GiB (68%)
Writing library : XviD 1.2.1 (UTC 2008-12-04)
Audio #1
ID : 1
Format : AC-3
Format/Info : Audio Coding 3
Mode extension : CM (complete main)
Codec ID : 2000
Duration : 1h 48mn
Bit rate mode : Constant
Bit rate : 448 Kbps
Channel(s) : 6 channels
Channel positions : Front: L C R, Side: L R, LFE
Sampling rate : 48.0 KHz
Bit depth : 16 bits
Compression mode : Lossy
Stream size : 346 MiB (16%)
Alignment : Split accross interleaves
Interleave, duration : 42 ms (1.00 video frame)
Interleave, preload duration : 500 ms
Title : Rus
Audio #2
ID : 2
Format : AC-3
Format/Info : Audio Coding 3
Mode extension : CM (complete main)
Codec ID : 2000
Duration : 1h 48mn
Bit rate mode : Constant
Bit rate : 448 Kbps
Channel(s) : 6 channels
Channel positions : Front: L C R, Side: L R, LFE
Sampling rate : 48.0 KHz
Bit depth : 16 bits
Compression mode : Lossy
Stream size : 346 MiB (16%)
Alignment : Split accross interleaves
Interleave, duration : 42 ms (1.00 video frame)
Interleave, preload duration : 500 ms
Title : Fra

Скриншот c названием фильма

Скриншоты




Показать сообщения:    

Текущее время: 09-Дек 06:57

Часовой пояс: UTC + 3


Вы не можете начинать темы
Вы не можете отвечать на сообщения
Вы не можете редактировать свои сообщения
Вы не можете удалять свои сообщения
Вы не можете голосовать в опросах
Вы не можете прикреплять файлы к сообщениям
Вы не можете скачивать файлы