(Classical/Piano/Solo) Mozart: Piano Sonatas [KK. 330, 332, 457, 331] (Mikhail Pletnev / Михаил Плетнёв) - 2006, FLAC (tracks+.cue) lossless


 

[Цитировать]

Mikhail Pletnev — Wolfgang Amadeus Mozart: Piano Sonatas-Classical/Piano/Solo • DG • № 0289 477 5788 7 • 2006 • lossless • FLAC • tracks+.cue • 01:10:36 • what.cd-01-03. Mozart Piano Sonata in C major, K.330
04-06. Mozart Piano Sonata in F major, K.332
07-09. Mozart Piano Sonata in C minor, K.457
10-12. Mozart Piano Sonata in A major, K.331
-Mikhail Pletnev - piano-

cue

TITLE "Mozart Piano Sonatas"
PERFORMER "Mikhail Pletnev"
CATALOG 0028947757887
REM GENRE "Classical"
REM DATE 2005
FILE "01 Mikhail Pletnev - Mozart Piano Sonata in C major, K.330 (300h) - I. Allegro moderato.wav" WAVE
TRACK 01 AUDIO
TITLE "Mozart Piano Sonata in C major, K.330 (300h) - I. Allegro moderato"
SONGWRITER "Mozart"
ISRC DEN960500331
INDEX 01 00:00:00
FILE "02 Mikhail Pletnev - Mozart Piano Sonata in C major, K.330 (300h) - II. Andante cantabile.wav" WAVE
TRACK 02 AUDIO
TITLE "Mozart Piano Sonata in C major, K.330 (300h) - II. Andante cantabile"
SONGWRITER "Mozart"
ISRC DEN960500332
INDEX 01 00:00:00
FILE "03 Mikhail Pletnev - Mozart Piano Sonata in C major, K.330 (300h) - III. Allegretto.wav" WAVE
TRACK 03 AUDIO
TITLE "Mozart Piano Sonata in C major, K.330 (300h) - III. Allegretto"
SONGWRITER "Mozart"
ISRC DEN960500333
INDEX 01 00:00:00
TRACK 04 AUDIO
TITLE "Mozart Piano Sonata in F major, K.332 (300k) - I. Allegro"
SONGWRITER "Mozart"
ISRC DEN960500341
INDEX 00 05:18:00
FILE "04 Mikhail Pletnev - Mozart Piano Sonata in F major, K.332 (300k) - I. Allegro.wav" WAVE
INDEX 01 00:00:00
FILE "05 Mikhail Pletnev - Mozart Piano Sonata in F major, K.332 (300k) - II. Adagio.wav" WAVE
TRACK 05 AUDIO
TITLE "Mozart Piano Sonata in F major, K.332 (300k) - II. Adagio"
SONGWRITER "Mozart"
ISRC DEN960500342
INDEX 01 00:00:00
FILE "06 Mikhail Pletnev - Mozart Piano Sonata in F major, K.332 (300k) - III. Allegro assai.wav" WAVE
TRACK 06 AUDIO
TITLE "Mozart Piano Sonata in F major, K.332 (300k) - III. Allegro assai"
SONGWRITER "Mozart"
ISRC DEN960500351
INDEX 01 00:00:00
TRACK 07 AUDIO
TITLE "Mozart Piano Sonata in C minor, K.457 - I. Molto allegro"
SONGWRITER "Mozart"
ISRC DEN960500351
INDEX 00 06:32:00
FILE "07 Mikhail Pletnev - Mozart Piano Sonata in C minor, K.457 - I. Molto allegro.wav" WAVE
INDEX 01 00:00:00
FILE "08 Mikhail Pletnev - Mozart Piano Sonata in C minor, K.457 - II. Adagio.wav" WAVE
TRACK 08 AUDIO
TITLE "Mozart Piano Sonata in C minor, K.457 - II. Adagio"
SONGWRITER "Mozart"
ISRC DEN960500352
INDEX 01 00:00:00
FILE "09 Mikhail Pletnev - Mozart Piano Sonata in C minor, K.457 - III. Allegro assai.wav" WAVE
TRACK 09 AUDIO
TITLE "Mozart Piano Sonata in C minor, K.457 - III. Allegro assai"
SONGWRITER "Mozart"
ISRC DEN960500353
INDEX 01 00:00:00
TRACK 10 AUDIO
TITLE "Mozart Piano Sonata in A major, K.331 (300i) - I. Tema. Andante grazioso - Var. I - VI"
SONGWRITER "Mozart"
ISRC DEN960500361
INDEX 00 05:20:00
FILE "10 Mikhail Pletnev - Mozart Piano Sonata in A major, K.331 (300i) - I. Tema. Andante grazioso - Var. I - VI.wav" WAVE
INDEX 01 00:00:00
FILE "11 Mikhail Pletnev - Mozart Piano Sonata in A major, K.331 (300i) - II. Menuetto - Trio.wav" WAVE
TRACK 11 AUDIO
TITLE "Mozart Piano Sonata in A major, K.331 (300i) - II. Menuetto - Trio"
SONGWRITER "Mozart"
ISRC DEN960500362
INDEX 01 00:00:00
FILE "12 Mikhail Pletnev - Mozart Piano Sonata in A major, K.331 (300i) - III. Alla turca. Allegretto.wav" WAVE
TRACK 12 AUDIO
TITLE "Mozart Piano Sonata in A major, K.331 (300i) - III. Alla turca. Allegretto"
SONGWRITER "Mozart"
ISRC DEN960500363
INDEX 01 00:00:00

EAC

X Lossless Decoder version 20091225 (115.1)
XLD extraction logfile from 2009-12-29 17:31:12 -0500
Mikhail Pletnev / Mozart Piano Sonatas
Used drive : HL-DT-ST DVDRW GS23N (revision SB00)
Use cdparanoia mode : YES (CDParanoia III 10.2 engine)
Disable audio cache : OK for the drive with cache less than 2750KB
Make use of C2 pointers : NO
Read offset correction : 667
Max retry count : 100
TOC of the extracted CD
Track | Start | Length | Start sector | End sector
---------------------------------------------------------
1 | 00:00:00 | 06:23:00 | 0 | 28724
2 | 06:23:00 | 06:19:00 | 28725 | 57149
3 | 12:42:00 | 05:24:00 | 57150 | 81449
4 | 18:06:00 | 07:30:00 | 81450 | 115199
5 | 25:36:00 | 04:37:00 | 115200 | 135974
6 | 30:13:00 | 06:41:00 | 135975 | 166049
7 | 36:54:00 | 06:50:00 | 166050 | 196799
8 | 43:44:00 | 07:43:00 | 196800 | 231524
9 | 51:27:00 | 05:28:00 | 231525 | 256124
10 | 56:55:00 | 06:13:00 | 256125 | 284099
11 | 63:08:00 | 04:16:00 | 284100 | 303299
12 | 67:24:00 | 03:12:00 | 303300 | 317699
Track 01
Filename : /Users/hunter/Desktop/Ripped Music/Mikhail Pletnev Mozart Pian Sonatas Deutsche Grammaphone B0005832-02 2005/01 Mikhail Pletnev - Mozart Piano Sonata in C major, K.330 (300h) - I. Allegro moderato.flac
/Users/hunter/Desktop/Ripped Music/Mikhail Pletnev Mozart Pian Sonatas Deutsche Grammaphone B0005832-02 2005/01 Mikhail Pletnev - Mozart Piano Sonata in C major, K.330 (300h) - I. Allegro moderato.mp3
Pre-gap length : 00:02:00
CRC32 hash (test run) : BD5D46BC
CRC32 hash : BD5D46BC
CRC32 hash (skip zero) : 1B3DD37C
AccurateRip signature : BB8226A4
->Accurately ripped! (confidence 6)
Statistics
Read error : 0
Skipped (treated as error) : 0
Edge jitter error (maybe fixed) : 0
Atom jitter error (maybe fixed) : 0
Drift error (maybe fixed) : 0
Dropped bytes error (maybe fixed) : 0
Duplicated bytes error (maybe fixed) : 0
Inconsistency in error sectors : 0
Track 02
Filename : /Users/hunter/Desktop/Ripped Music/Mikhail Pletnev Mozart Pian Sonatas Deutsche Grammaphone B0005832-02 2005/02 Mikhail Pletnev - Mozart Piano Sonata in C major, K.330 (300h) - II. Andante cantabile.flac
/Users/hunter/Desktop/Ripped Music/Mikhail Pletnev Mozart Pian Sonatas Deutsche Grammaphone B0005832-02 2005/02 Mikhail Pletnev - Mozart Piano Sonata in C major, K.330 (300h) - II. Andante cantabile.mp3
CRC32 hash (test run) : D74F2178
CRC32 hash : D74F2178
CRC32 hash (skip zero) : 6338ED6B
AccurateRip signature : 38C1D034
->Accurately ripped! (confidence 7)
Statistics
Read error : 0
Skipped (treated as error) : 0
Edge jitter error (maybe fixed) : 0
Atom jitter error (maybe fixed) : 0
Drift error (maybe fixed) : 0
Dropped bytes error (maybe fixed) : 0
Duplicated bytes error (maybe fixed) : 0
Inconsistency in error sectors : 0
Track 03
Filename : /Users/hunter/Desktop/Ripped Music/Mikhail Pletnev Mozart Pian Sonatas Deutsche Grammaphone B0005832-02 2005/03 Mikhail Pletnev - Mozart Piano Sonata in C major, K.330 (300h) - III. Allegretto.flac
/Users/hunter/Desktop/Ripped Music/Mikhail Pletnev Mozart Pian Sonatas Deutsche Grammaphone B0005832-02 2005/03 Mikhail Pletnev - Mozart Piano Sonata in C major, K.330 (300h) - III. Allegretto.mp3
CRC32 hash (test run) : A143DBCF
CRC32 hash : A143DBCF
CRC32 hash (skip zero) : DB0B49CC
AccurateRip signature : D169CF3A
->Accurately ripped! (confidence 7)
Statistics
Read error : 0
Skipped (treated as error) : 0
Edge jitter error (maybe fixed) : 0
Atom jitter error (maybe fixed) : 0
Drift error (maybe fixed) : 0
Dropped bytes error (maybe fixed) : 0
Duplicated bytes error (maybe fixed) : 0
Inconsistency in error sectors : 0
Track 04
Filename : /Users/hunter/Desktop/Ripped Music/Mikhail Pletnev Mozart Pian Sonatas Deutsche Grammaphone B0005832-02 2005/04 Mikhail Pletnev - Mozart Piano Sonata in F major, K.332 (300k) - I. Allegro.flac
/Users/hunter/Desktop/Ripped Music/Mikhail Pletnev Mozart Pian Sonatas Deutsche Grammaphone B0005832-02 2005/04 Mikhail Pletnev - Mozart Piano Sonata in F major, K.332 (300k) - I. Allegro.mp3
Pre-gap length : 00:06:00
CRC32 hash (test run) : 22C7AA75
CRC32 hash : 22C7AA75
CRC32 hash (skip zero) : B6283CF4
AccurateRip signature : 139B723F
->Accurately ripped! (confidence 7)
Statistics
Read error : 0
Skipped (treated as error) : 0
Edge jitter error (maybe fixed) : 0
Atom jitter error (maybe fixed) : 0
Drift error (maybe fixed) : 0
Dropped bytes error (maybe fixed) : 0
Duplicated bytes error (maybe fixed) : 0
Inconsistency in error sectors : 0
Track 05
Filename : /Users/hunter/Desktop/Ripped Music/Mikhail Pletnev Mozart Pian Sonatas Deutsche Grammaphone B0005832-02 2005/05 Mikhail Pletnev - Mozart Piano Sonata in F major, K.332 (300k) - II. Adagio.flac
/Users/hunter/Desktop/Ripped Music/Mikhail Pletnev Mozart Pian Sonatas Deutsche Grammaphone B0005832-02 2005/05 Mikhail Pletnev - Mozart Piano Sonata in F major, K.332 (300k) - II. Adagio.mp3
CRC32 hash (test run) : 67BFB7AB
CRC32 hash : 67BFB7AB
CRC32 hash (skip zero) : C66BE3E0
AccurateRip signature : A12DDDFB
->Accurately ripped! (confidence 7)
Statistics
Read error : 0
Skipped (treated as error) : 0
Edge jitter error (maybe fixed) : 0
Atom jitter error (maybe fixed) : 0
Drift error (maybe fixed) : 0
Dropped bytes error (maybe fixed) : 0
Duplicated bytes error (maybe fixed) : 0
Inconsistency in error sectors : 0
Track 06
Filename : /Users/hunter/Desktop/Ripped Music/Mikhail Pletnev Mozart Pian Sonatas Deutsche Grammaphone B0005832-02 2005/06 Mikhail Pletnev - Mozart Piano Sonata in F major, K.332 (300k) - III. Allegro assai.flac
/Users/hunter/Desktop/Ripped Music/Mikhail Pletnev Mozart Pian Sonatas Deutsche Grammaphone B0005832-02 2005/06 Mikhail Pletnev - Mozart Piano Sonata in F major, K.332 (300k) - III. Allegro assai.mp3
CRC32 hash (test run) : C3DC3BC7
CRC32 hash : C3DC3BC7
CRC32 hash (skip zero) : FAC1DF6D
AccurateRip signature : CE9A17BA
->Accurately ripped! (confidence 7)
Statistics
Read error : 0
Skipped (treated as error) : 0
Edge jitter error (maybe fixed) : 0
Atom jitter error (maybe fixed) : 0
Drift error (maybe fixed) : 0
Dropped bytes error (maybe fixed) : 0
Duplicated bytes error (maybe fixed) : 0
Inconsistency in error sectors : 0
Track 07
Filename : /Users/hunter/Desktop/Ripped Music/Mikhail Pletnev Mozart Pian Sonatas Deutsche Grammaphone B0005832-02 2005/07 Mikhail Pletnev - Mozart Piano Sonata in C minor, K.457 - I. Molto allegro.flac
/Users/hunter/Desktop/Ripped Music/Mikhail Pletnev Mozart Pian Sonatas Deutsche Grammaphone B0005832-02 2005/07 Mikhail Pletnev - Mozart Piano Sonata in C minor, K.457 - I. Molto allegro.mp3
Pre-gap length : 00:09:00
CRC32 hash (test run) : 42ACAB41
CRC32 hash : 42ACAB41
CRC32 hash (skip zero) : DE0B4A7A
AccurateRip signature : DEF366FA
->Accurately ripped! (confidence 7)
Statistics
Read error : 0
Skipped (treated as error) : 0
Edge jitter error (maybe fixed) : 0
Atom jitter error (maybe fixed) : 0
Drift error (maybe fixed) : 0
Dropped bytes error (maybe fixed) : 0
Duplicated bytes error (maybe fixed) : 0
Inconsistency in error sectors : 0
Track 08
Filename : /Users/hunter/Desktop/Ripped Music/Mikhail Pletnev Mozart Pian Sonatas Deutsche Grammaphone B0005832-02 2005/08 Mikhail Pletnev - Mozart Piano Sonata in C minor, K.457 - II. Adagio.flac
/Users/hunter/Desktop/Ripped Music/Mikhail Pletnev Mozart Pian Sonatas Deutsche Grammaphone B0005832-02 2005/08 Mikhail Pletnev - Mozart Piano Sonata in C minor, K.457 - II. Adagio.mp3
CRC32 hash (test run) : DFB1F266
CRC32 hash : DFB1F266
CRC32 hash (skip zero) : B36FF578
AccurateRip signature : D47ABB15
->Accurately ripped! (confidence 7)
Statistics
Read error : 0
Skipped (treated as error) : 0
Edge jitter error (maybe fixed) : 0
Atom jitter error (maybe fixed) : 0
Drift error (maybe fixed) : 0
Dropped bytes error (maybe fixed) : 0
Duplicated bytes error (maybe fixed) : 0
Inconsistency in error sectors : 0
Track 09
Filename : /Users/hunter/Desktop/Ripped Music/Mikhail Pletnev Mozart Pian Sonatas Deutsche Grammaphone B0005832-02 2005/09 Mikhail Pletnev - Mozart Piano Sonata in C minor, K.457 - III. Allegro assai.flac
/Users/hunter/Desktop/Ripped Music/Mikhail Pletnev Mozart Pian Sonatas Deutsche Grammaphone B0005832-02 2005/09 Mikhail Pletnev - Mozart Piano Sonata in C minor, K.457 - III. Allegro assai.mp3
CRC32 hash (test run) : C39E901E
CRC32 hash : C39E901E
CRC32 hash (skip zero) : C0556CA6
AccurateRip signature : 38559413
->Accurately ripped! (confidence 7)
Statistics
Read error : 0
Skipped (treated as error) : 0
Edge jitter error (maybe fixed) : 0
Atom jitter error (maybe fixed) : 0
Drift error (maybe fixed) : 0
Dropped bytes error (maybe fixed) : 0
Duplicated bytes error (maybe fixed) : 0
Inconsistency in error sectors : 0
Track 10
Filename : /Users/hunter/Desktop/Ripped Music/Mikhail Pletnev Mozart Pian Sonatas Deutsche Grammaphone B0005832-02 2005/10 Mikhail Pletnev - Mozart Piano Sonata in A major, K.331 (300i) - I. Tema. Andante grazioso - Var. I - VI.flac
/Users/hunter/Desktop/Ripped Music/Mikhail Pletnev Mozart Pian Sonatas Deutsche Grammaphone B0005832-02 2005/10 Mikhail Pletnev - Mozart Piano Sonata in A major, K.331 (300i) - I. Tema. Andante grazioso - Var. I - VI.mp3
Pre-gap length : 00:08:00
CRC32 hash (test run) : 632B6E78
CRC32 hash : 632B6E78
CRC32 hash (skip zero) : A0B1D086
AccurateRip signature : FA710D47
->Accurately ripped! (confidence 7)
Statistics
Read error : 0
Skipped (treated as error) : 0
Edge jitter error (maybe fixed) : 0
Atom jitter error (maybe fixed) : 0
Drift error (maybe fixed) : 0
Dropped bytes error (maybe fixed) : 0
Duplicated bytes error (maybe fixed) : 0
Inconsistency in error sectors : 0
Track 11
Filename : /Users/hunter/Desktop/Ripped Music/Mikhail Pletnev Mozart Pian Sonatas Deutsche Grammaphone B0005832-02 2005/11 Mikhail Pletnev - Mozart Piano Sonata in A major, K.331 (300i) - II. Menuetto - Trio.flac
/Users/hunter/Desktop/Ripped Music/Mikhail Pletnev Mozart Pian Sonatas Deutsche Grammaphone B0005832-02 2005/11 Mikhail Pletnev - Mozart Piano Sonata in A major, K.331 (300i) - II. Menuetto - Trio.mp3
CRC32 hash (test run) : EF1E646E
CRC32 hash : EF1E646E
CRC32 hash (skip zero) : A913CE16
AccurateRip signature : 73AAE38A
->Accurately ripped! (confidence 7)
Statistics
Read error : 0
Skipped (treated as error) : 0
Edge jitter error (maybe fixed) : 0
Atom jitter error (maybe fixed) : 0
Drift error (maybe fixed) : 0
Dropped bytes error (maybe fixed) : 0
Duplicated bytes error (maybe fixed) : 0
Inconsistency in error sectors : 0
Track 12
Filename : /Users/hunter/Desktop/Ripped Music/Mikhail Pletnev Mozart Pian Sonatas Deutsche Grammaphone B0005832-02 2005/12 Mikhail Pletnev - Mozart Piano Sonata in A major, K.331 (300i) - III. Alla turca. Allegretto.flac
/Users/hunter/Desktop/Ripped Music/Mikhail Pletnev Mozart Pian Sonatas Deutsche Grammaphone B0005832-02 2005/12 Mikhail Pletnev - Mozart Piano Sonata in A major, K.331 (300i) - III. Alla turca. Allegretto.mp3
CRC32 hash (test run) : C4608E1A
CRC32 hash : C4608E1A
CRC32 hash (skip zero) : FDD72CB7
AccurateRip signature : 163075EA
->Accurately ripped! (confidence 7)
Statistics
Read error : 0
Skipped (treated as error) : 0
Edge jitter error (maybe fixed) : 0
Atom jitter error (maybe fixed) : 0
Drift error (maybe fixed) : 0
Dropped bytes error (maybe fixed) : 0
Duplicated bytes error (maybe fixed) : 0
Inconsistency in error sectors : 0
No errors occurred
End of status report



Показать сообщения:    

Текущее время: 07-Дек 19:29

Часовой пояс: UTC + 3


Вы не можете начинать темы
Вы не можете отвечать на сообщения
Вы не можете редактировать свои сообщения
Вы не можете удалять свои сообщения
Вы не можете голосовать в опросах
Вы не можете прикреплять файлы к сообщениям
Вы не можете скачивать файлы