(Classical/Piano/Solo) Prokofiev / Прокофьев: Piano Sonatas Nos. 3, 7, 8 (Andrei Gavrilov / Андрей Гаврилов) - 1992, FLAC (tracks+.cue) lossless


 

[Цитировать]

Andrei Gavrilov — Sergei Prokofiev: Piano Sonatas Nos. 3•7•8-Classical/Piano/Solo • DG • № 435 439 2 • 1992 • lossless • FLAC • tracks+.cue • 00:52:10 • what.cd-01. Piano Sonata No.3 in A minor, Op.28
02-04. Piano Sonata No.7 in B flat, Op.83
05-07. Piano Sonata No.8 in B flat, Op.84
-Andrei Gavrilov - piano-

cue

REM GENRE Classical
REM DATE 1991
REM DISCID 500C3A07
REM COMMENT "ExactAudioCopy v1.0b3"
CATALOG 0028943543927
PERFORMER "Andrei Gavrilov"
TITLE "Klaviersonaten 3, 7, 8."
FILE "01 - Klaviersonate Nr. 3 a-moll op. 28 Allegro tempestoso.wav" WAVE
TRACK 01 AUDIO
TITLE "Klaviersonate Nr. 3 a-moll op. 28 Allegro tempestoso"
PERFORMER "Andrei Gavrilov"
ISRC DEF059102780
PREGAP 00:00:33
INDEX 01 00:00:00
TRACK 02 AUDIO
TITLE "Klaviersonate Nr. 7 B-Dur op. 83 1. Satz Allegro inquieto"
PERFORMER "Andrei Gavrilov"
ISRC DEF059102790
INDEX 00 06:58:01
FILE "02 - Klaviersonate Nr. 7 B-Dur op. 83 1. Satz Allegro inquieto.wav" WAVE
INDEX 01 00:00:00
FILE "03 - Klaviersonate Nr. 7 B-Dur op. 83 2. Satz Andante caloroso.wav" WAVE
TRACK 03 AUDIO
TITLE "Klaviersonate Nr. 7 B-Dur op. 83 2. Satz Andante caloroso"
PERFORMER "Andrei Gavrilov"
ISRC DEF059102790
INDEX 01 00:00:00
FILE "04 - Klaviersonate Nr. 7 B-Dur op. 83 3. Satz Precipitato.wav" WAVE
TRACK 04 AUDIO
TITLE "Klaviersonate Nr. 7 B-Dur op. 83 3. Satz Precipitato"
PERFORMER "Andrei Gavrilov"
ISRC DEF059102790
INDEX 01 00:00:00
TRACK 05 AUDIO
TITLE "Klaviersonate Nr. 8 B-Dur op. 84 1. Satz Andante dolce"
PERFORMER "Andrei Gavrilov"
ISRC DEF059102800
INDEX 00 03:43:01
FILE "05 - Klaviersonate Nr. 8 B-Dur op. 84 1. Satz Andante dolce.wav" WAVE
INDEX 01 00:00:00
FILE "06 - Klaviersonate Nr. 8 B-Dur op. 84 2. Satz Andante sognando.wav" WAVE
TRACK 06 AUDIO
TITLE "Klaviersonate Nr. 8 B-Dur op. 84 2. Satz Andante sognando"
PERFORMER "Andrei Gavrilov"
ISRC DEF059102800
INDEX 01 00:00:00
FILE "07 - Klaviersonate Nr. 8 B-Dur op. 84 3. Satz Vivace.wav" WAVE
TRACK 07 AUDIO
TITLE "Klaviersonate Nr. 8 B-Dur op. 84 3. Satz Vivace"
PERFORMER "Andrei Gavrilov"
ISRC DEF059102800
INDEX 01 00:00:00

EAC

Exact Audio Copy V1.0 beta 3 from 29. August 2011
EAC extraction logfile from 25. July 2013, 22:56
Andrei Gavrilov / Klaviersonaten 3, 7, 8.
Used drive : HL-DT-STDVDRAM GT30N Adapter: 0 ID: 1
Read mode : Secure
Utilize accurate stream : Yes
Defeat audio cache : Yes
Make use of C2 pointers : No
Read offset correction : 103
Overread into Lead-In and Lead-Out : No
Fill up missing offset samples with silence : Yes
Delete leading and trailing silent blocks : No
Null samples used in CRC calculations : Yes
Used interface : Native Win32 interface for Win NT & 2000
Gap handling : Appended to previous track
Used output format : User Defined Encoder
Selected bitrate : 1024 kBit/s
Quality : High
Add ID3 tag : No
Command line compressor : C:\Program Files (x86)\Exact Audio Copy\Flac\flac.exe
Additional command line options : -8 -V -T "ARTIST=%artist%" -T "TITLE=%title%" -T "ALBUM=%albumtitle%" -T "DATE=%year%" -T "TRACKNUMBER=%tracknr%" -T "GENRE=%genre%" -T "PERFORMER=%albuminterpret%" -T "COMPOSER=%composer%" %haslyrics%--tag-from-file=LYRICS="%lyricsfile%"%haslyrics% -T "ALBUMARTIST=%albumartist%" -T "DISCNUMBER=%cdnumber%" -T "TOTALDISCS=%totalcds%" -T "TOTALTRACKS=%numtracks%" -T "COMMENT=%comment%" %source% -o %dest%
TOC of the extracted CD
Track | Start | Length | Start sector | End sector
---------------------------------------------------------
1 | 0:00.33 | 7:02.00 | 33 | 31682
2 | 7:02.33 | 7:32.00 | 31683 | 65582
3 | 14:34.33 | 6:39.00 | 65583 | 95507
4 | 21:13.33 | 3:46.00 | 95508 | 112457
5 | 24:59.33 | 13:59.00 | 112458 | 175382
6 | 38:58.33 | 4:01.00 | 175383 | 193457
7 | 42:59.33 | 9:11.00 | 193458 | 234782
Track 1
Filename D:\My Documents\My Music\Andrei Gavrilov - 1992 - Prokofiev Klaviersonaten No.3, 7 & 8 [FLAC]\01 - Klaviersonate Nr. 3 a-moll op. 28 Allegro tempestoso.wav
Pre-gap length 0:00:02.44
Peak level 91.2 %
Extraction speed 1.3 X
Track quality 100.0 %
Test CRC 7E3E3BB9
Copy CRC 7E3E3BB9
Accurately ripped (confidence 4) [A49F6F49] (AR v2)
Copy OK
Track 2
Filename D:\My Documents\My Music\Andrei Gavrilov - 1992 - Prokofiev Klaviersonaten No.3, 7 & 8 [FLAC]\02 - Klaviersonate Nr. 7 B-Dur op. 83 1. Satz Allegro inquieto.wav
Pre-gap length 0:00:03.98
Peak level 88.0 %
Extraction speed 1.6 X
Track quality 100.0 %
Test CRC EBF2C780
Copy CRC EBF2C780
Accurately ripped (confidence 4) [3FBD1B44] (AR v2)
Copy OK
Track 3
Filename D:\My Documents\My Music\Andrei Gavrilov - 1992 - Prokofiev Klaviersonaten No.3, 7 & 8 [FLAC]\03 - Klaviersonate Nr. 7 B-Dur op. 83 2. Satz Andante caloroso.wav
Peak level 84.6 %
Extraction speed 1.8 X
Track quality 100.0 %
Test CRC 3BC7CED9
Copy CRC 3BC7CED9
Accurately ripped (confidence 3) [176D1671] (AR v2)
Copy OK
Track 4
Filename D:\My Documents\My Music\Andrei Gavrilov - 1992 - Prokofiev Klaviersonaten No.3, 7 & 8 [FLAC]\04 - Klaviersonate Nr. 7 B-Dur op. 83 3. Satz Precipitato.wav
Peak level 92.1 %
Extraction speed 1.8 X
Track quality 100.0 %
Test CRC 6F49DF84
Copy CRC 6F49DF84
Accurately ripped (confidence 4) [421E7327] (AR v2)
Copy OK
Track 5
Filename D:\My Documents\My Music\Andrei Gavrilov - 1992 - Prokofiev Klaviersonaten No.3, 7 & 8 [FLAC]\05 - Klaviersonate Nr. 8 B-Dur op. 84 1. Satz Andante dolce.wav
Pre-gap length 0:00:02.98
Peak level 87.8 %
Extraction speed 2.3 X
Track quality 100.0 %
Test CRC D9BCCE85
Copy CRC D9BCCE85
Accurately ripped (confidence 4) [7C6528E7] (AR v2)
Copy OK
Track 6
Filename D:\My Documents\My Music\Andrei Gavrilov - 1992 - Prokofiev Klaviersonaten No.3, 7 & 8 [FLAC]\06 - Klaviersonate Nr. 8 B-Dur op. 84 2. Satz Andante sognando.wav
Peak level 30.0 %
Extraction speed 1.9 X
Track quality 99.9 %
Test CRC 09603ADD
Copy CRC 09603ADD
Accurately ripped (confidence 4) [E22E2E26] (AR v2)
Copy OK
Track 7
Filename D:\My Documents\My Music\Andrei Gavrilov - 1992 - Prokofiev Klaviersonaten No.3, 7 & 8 [FLAC]\07 - Klaviersonate Nr. 8 B-Dur op. 84 3. Satz Vivace.wav
Peak level 81.5 %
Extraction speed 2.6 X
Track quality 100.0 %
Test CRC 91430DEE
Copy CRC 91430DEE
Accurately ripped (confidence 4) [C2AFAF82] (AR v2)
Copy OK
All tracks accurately ripped
No errors occurred
End of status report
==== Log checksum CEF04A610F1FCE6EEAAE93A5B7C2A8D75C024B0B6DFC3A56B67B9EAD737FC5AC ====



Показать сообщения:    

Текущее время: 08-Дек 23:10

Часовой пояс: UTC + 3


Вы не можете начинать темы
Вы не можете отвечать на сообщения
Вы не можете редактировать свои сообщения
Вы не можете удалять свои сообщения
Вы не можете голосовать в опросах
Вы не можете прикреплять файлы к сообщениям
Вы не можете скачивать файлы