(Classical/Piano/Solo) Grieg: Lyric Pieces (Andrei Gavrilov) - 1993, FLAC (tracks+.cue) lossless


 

[Цитировать]

Andrei Gavrilov — Edvard Grieg: Lyric Pieces-Classical/Piano/Solo • DG • № 437 522-2 • 1993 • lossless • FLAC • tracks+.cue • 01:13:37 • what.cd-01. Arietta || 02. Cradle Song || 03. Butterfly || 04. Solitary Traveller || 05. To Spring
06. Album Leaf || 07. Melody || 08. Halling || 09. Shepherd Boy || 10. Gangar
11. March of the Dwarves || 12. Nocturne || 13. Scherzo || 14. Homesickness || 15. Brooklet
16. Ballad || 17. Wedding Day at Troldhaugen || 18. At Your Feet || 19. At the Cradle
20. Once Upon a Time || 21. Summer's Eve || 22. Puck || 23. Gone || 24. Reminiscences
-Andrei Gavrilov - piano-

cue

REM GENRE Classical
REM DATE 1993
REM DISCID 9D114118
REM COMMENT "ExactAudioCopy v1.0b3"
PERFORMER "Andrei Gavrilov"
TITLE "Grieg - Lyric Pieces [Gavrilov]"
FILE "01 - Arietta.wav" WAVE
TRACK 01 AUDIO
TITLE "Arietta"
PERFORMER "Andrei Gavrilov"
PREGAP 00:00:33
INDEX 01 00:00:00
FILE "02 - Cradle Song.wav" WAVE
TRACK 02 AUDIO
TITLE "Cradle Song"
PERFORMER "Andrei Gavrilov"
INDEX 01 00:00:00
FILE "03 - Butterfly.wav" WAVE
TRACK 03 AUDIO
TITLE "Butterfly"
PERFORMER "Andrei Gavrilov"
INDEX 01 00:00:00
FILE "04 - Solitary Traveller.wav" WAVE
TRACK 04 AUDIO
TITLE "Solitary Traveller"
PERFORMER "Andrei Gavrilov"
INDEX 01 00:00:00
FILE "05 - To Spring.wav" WAVE
TRACK 05 AUDIO
TITLE "To Spring"
PERFORMER "Andrei Gavrilov"
INDEX 01 00:00:00
FILE "06 - Album Leaf.wav" WAVE
TRACK 06 AUDIO
TITLE "Album Leaf"
PERFORMER "Andrei Gavrilov"
INDEX 01 00:00:00
FILE "07 - Melody.wav" WAVE
TRACK 07 AUDIO
TITLE "Melody"
PERFORMER "Andrei Gavrilov"
INDEX 01 00:00:00
FILE "08 - Halling.wav" WAVE
TRACK 08 AUDIO
TITLE "Halling"
PERFORMER "Andrei Gavrilov"
INDEX 01 00:00:00
FILE "09 - Shepherd Boy.wav" WAVE
TRACK 09 AUDIO
TITLE "Shepherd Boy"
PERFORMER "Andrei Gavrilov"
INDEX 01 00:00:00
FILE "10 - Gangar.wav" WAVE
TRACK 10 AUDIO
TITLE "Gangar"
PERFORMER "Andrei Gavrilov"
INDEX 01 00:00:00
FILE "11 - March of the Dwarves.wav" WAVE
TRACK 11 AUDIO
TITLE "March of the Dwarves"
PERFORMER "Andrei Gavrilov"
INDEX 01 00:00:00
FILE "12 - Nocturne.wav" WAVE
TRACK 12 AUDIO
TITLE "Nocturne"
PERFORMER "Andrei Gavrilov"
INDEX 01 00:00:00
FILE "13 - Scherzo.wav" WAVE
TRACK 13 AUDIO
TITLE "Scherzo"
PERFORMER "Andrei Gavrilov"
INDEX 01 00:00:00
FILE "14 - Homesickness.wav" WAVE
TRACK 14 AUDIO
TITLE "Homesickness"
PERFORMER "Andrei Gavrilov"
INDEX 01 00:00:00
FILE "15 - Brooklet.wav" WAVE
TRACK 15 AUDIO
TITLE "Brooklet"
PERFORMER "Andrei Gavrilov"
INDEX 01 00:00:00
FILE "16 - Ballad.wav" WAVE
TRACK 16 AUDIO
TITLE "Ballad"
PERFORMER "Andrei Gavrilov"
INDEX 01 00:00:00
FILE "17 - Wedding Day at Troldhaugen.wav" WAVE
TRACK 17 AUDIO
TITLE "Wedding Day at Troldhaugen"
PERFORMER "Andrei Gavrilov"
INDEX 01 00:00:00
FILE "18 - At Your Feet.wav" WAVE
TRACK 18 AUDIO
TITLE "At Your Feet"
PERFORMER "Andrei Gavrilov"
INDEX 01 00:00:00
FILE "19 - At the Cradle.wav" WAVE
TRACK 19 AUDIO
TITLE "At the Cradle"
PERFORMER "Andrei Gavrilov"
INDEX 01 00:00:00
FILE "20 - Once Upon a Time.wav" WAVE
TRACK 20 AUDIO
TITLE "Once Upon a Time"
PERFORMER "Andrei Gavrilov"
INDEX 01 00:00:00
FILE "21 - Summer's Eve.wav" WAVE
TRACK 21 AUDIO
TITLE "Summer's Eve"
PERFORMER "Andrei Gavrilov"
INDEX 01 00:00:00
FILE "22 - Puck.wav" WAVE
TRACK 22 AUDIO
TITLE "Puck"
PERFORMER "Andrei Gavrilov"
INDEX 01 00:00:00
FILE "23 - Gone.wav" WAVE
TRACK 23 AUDIO
TITLE "Gone"
PERFORMER "Andrei Gavrilov"
INDEX 01 00:00:00
FILE "24 - Reminiscences.wav" WAVE
TRACK 24 AUDIO
TITLE "Reminiscences"
PERFORMER "Andrei Gavrilov"
INDEX 01 00:00:00

EAC

Exact Audio Copy V1.0 beta 3 from 29. August 2011
EAC extraction logfile from 17. August 2015, 15:45
Andrei Gavrilov / Grieg - Lyric Pieces [Gavrilov]
Used drive : HL-DT-STDVD+-RW GT30N Adapter: 0 ID: 1
Read mode : Secure
Utilize accurate stream : Yes
Defeat audio cache : Yes
Make use of C2 pointers : No
Read offset correction : 103
Overread into Lead-In and Lead-Out : No
Fill up missing offset samples with silence : Yes
Delete leading and trailing silent blocks : No
Null samples used in CRC calculations : Yes
Used interface : Native Win32 interface for Win NT & 2000
Gap handling : Appended to previous track
Used output format : User Defined Encoder
Selected bitrate : 128 kBit/s
Quality : High
Add ID3 tag : No
Command line compressor : C:\Program Files (x86)\Exact Audio Copy\Flac\flac.exe
Additional command line options : -8 -V -T "ARTIST=%artist%" -T "TITLE=%title%" -T "ALBUM=%albumtitle%" -T "DATE=%year%" -T "TRACKNUMBER=%tracknr%" -T "GENRE=%genre%" -T "PERFORMER=%albuminterpret%" -T "COMPOSER=%composer%" %haslyrics%--tag-from-file=LYRICS="%lyricsfile%"%haslyrics% -T "ALBUMARTIST=%albumartist%" -T "DISCNUMBER=%cdnumber%" -T "TOTALDISCS=%totalcds%" -T "TOTALTRACKS=%numtracks%" -T "COMMENT=%comment%" %source% -o %dest%
TOC of the extracted CD
Track | Start | Length | Start sector | End sector
---------------------------------------------------------
1 | 0:00.33 | 1:13.00 | 33 | 5507
2 | 1:13.33 | 3:11.00 | 5508 | 19832
3 | 4:24.33 | 1:33.00 | 19833 | 26807
4 | 5:57.33 | 2:17.00 | 26808 | 37082
5 | 8:14.33 | 2:55.00 | 37083 | 50207
6 | 11:09.33 | 3:06.00 | 50208 | 64157
7 | 14:15.33 | 4:00.00 | 64158 | 82157
8 | 18:15.33 | 1:29.00 | 82158 | 88832
9 | 19:44.33 | 5:23.00 | 88833 | 113057
10 | 25:07.33 | 3:05.00 | 113058 | 126932
11 | 28:12.33 | 2:24.00 | 126933 | 137732
12 | 30:36.33 | 4:35.00 | 137733 | 158357
13 | 35:11.33 | 2:59.00 | 158358 | 171782
14 | 38:10.33 | 4:46.00 | 171783 | 193232
15 | 42:56.33 | 1:28.00 | 193233 | 199832
16 | 44:24.33 | 3:23.00 | 199833 | 215057
17 | 47:47.33 | 5:15.00 | 215058 | 238682
18 | 53:02.33 | 2:49.00 | 238683 | 251357
19 | 55:51.33 | 3:32.00 | 251358 | 267257
20 | 59:23.33 | 4:38.00 | 267258 | 288107
21 | 64:01.33 | 2:34.00 | 288108 | 299657
22 | 66:35.33 | 1:30.00 | 299658 | 306407
23 | 68:05.33 | 3:31.00 | 306408 | 322232
24 | 71:36.33 | 2:01.00 | 322233 | 331307
Track 1
Filename C:\FLACs\Grieg - Lyric Pieces [Gavrilov]\01 - Arietta.wav
Pre-gap length 0:00:02.44
Peak level 22.9 %
Extraction speed 0.9 X
Track quality 100.0 %
Test CRC C7C1F537
Copy CRC C7C1F537
Accurately ripped (confidence 9) [BF1B0036] (AR v2)
Copy OK
Track 2
Filename C:\FLACs\Grieg - Lyric Pieces [Gavrilov]\02 - Cradle Song.wav
Peak level 43.5 %
Extraction speed 1.3 X
Track quality 100.0 %
Test CRC 07C2BFA9
Copy CRC 07C2BFA9
Accurately ripped (confidence 7) [4C490429] (AR v2)
Copy OK
Track 3
Filename C:\FLACs\Grieg - Lyric Pieces [Gavrilov]\03 - Butterfly.wav
Peak level 48.2 %
Extraction speed 1.1 X
Track quality 100.0 %
Test CRC 651D21F4
Copy CRC 651D21F4
Accurately ripped (confidence 8) [11C42D3B] (AR v2)
Copy OK
Track 4
Filename C:\FLACs\Grieg - Lyric Pieces [Gavrilov]\04 - Solitary Traveller.wav
Peak level 63.1 %
Extraction speed 1.3 X
Track quality 100.0 %
Test CRC 4500AB7C
Copy CRC 4500AB7C
Accurately ripped (confidence 8) [97A8BDE0] (AR v2)
Copy OK
Track 5
Filename C:\FLACs\Grieg - Lyric Pieces [Gavrilov]\05 - To Spring.wav
Peak level 86.8 %
Extraction speed 1.4 X
Track quality 100.0 %
Test CRC 788DF893
Copy CRC 788DF893
Accurately ripped (confidence 8) [3B12388E] (AR v2)
Copy OK
Track 6
Filename C:\FLACs\Grieg - Lyric Pieces [Gavrilov]\06 - Album Leaf.wav
Peak level 62.1 %
Extraction speed 1.5 X
Track quality 100.0 %
Test CRC D8DA98EB
Copy CRC D8DA98EB
Accurately ripped (confidence 8) [1ACFD09B] (AR v2)
Copy OK
Track 7
Filename C:\FLACs\Grieg - Lyric Pieces [Gavrilov]\07 - Melody.wav
Peak level 75.2 %
Extraction speed 1.4 X
Track quality 99.9 %
Test CRC 62B90418
Copy CRC 62B90418
Accurately ripped (confidence 8) [7D5091F4] (AR v2)
Copy OK
Track 8
Filename C:\FLACs\Grieg - Lyric Pieces [Gavrilov]\08 - Halling.wav
Peak level 60.8 %
Extraction speed 1.3 X
Track quality 100.0 %
Test CRC 703E0D09
Copy CRC 703E0D09
Accurately ripped (confidence 8) [290C6242] (AR v2)
Copy OK
Track 9
Filename C:\FLACs\Grieg - Lyric Pieces [Gavrilov]\09 - Shepherd Boy.wav
Peak level 65.9 %
Extraction speed 1.7 X
Track quality 99.9 %
Test CRC 2577C35B
Copy CRC 2577C35B
Accurately ripped (confidence 8) [00EC7ED5] (AR v2)
Copy OK
Track 10
Filename C:\FLACs\Grieg - Lyric Pieces [Gavrilov]\10 - Gangar.wav
Peak level 87.0 %
Extraction speed 1.8 X
Track quality 100.0 %
Test CRC 2EB75F69
Copy CRC 2EB75F69
Accurately ripped (confidence 8) [E63DE015] (AR v2)
Copy OK
Track 11
Filename C:\FLACs\Grieg - Lyric Pieces [Gavrilov]\11 - March of the Dwarves.wav
Peak level 99.4 %
Extraction speed 1.8 X
Track quality 100.0 %
Test CRC C2C537D3
Copy CRC C2C537D3
Accurately ripped (confidence 8) [6BEF9EC9] (AR v2)
Copy OK
Track 12
Filename C:\FLACs\Grieg - Lyric Pieces [Gavrilov]\12 - Nocturne.wav
Peak level 74.2 %
Extraction speed 2.1 X
Track quality 100.0 %
Test CRC 365904BE
Copy CRC 365904BE
Accurately ripped (confidence 8) [A0FD9606] (AR v2)
Copy OK
Track 13
Filename C:\FLACs\Grieg - Lyric Pieces [Gavrilov]\13 - Scherzo.wav
Peak level 65.5 %
Extraction speed 2.0 X
Track quality 100.0 %
Test CRC EC7C3F35
Copy CRC EC7C3F35
Accurately ripped (confidence 8) [5798BBBF] (AR v2)
Copy OK
Track 14
Filename C:\FLACs\Grieg - Lyric Pieces [Gavrilov]\14 - Homesickness.wav
Peak level 22.7 %
Extraction speed 2.2 X
Track quality 100.0 %
Test CRC 0CDD86B8
Copy CRC 0CDD86B8
Accurately ripped (confidence 8) [9B825C6B] (AR v2)
Copy OK
Track 15
Filename C:\FLACs\Grieg - Lyric Pieces [Gavrilov]\15 - Brooklet.wav
Peak level 56.9 %
Extraction speed 1.7 X
Track quality 100.0 %
Test CRC 1AD5649F
Copy CRC 1AD5649F
Accurately ripped (confidence 8) [185C23CE] (AR v2)
Copy OK
Track 16
Filename C:\FLACs\Grieg - Lyric Pieces [Gavrilov]\16 - Ballad.wav
Peak level 79.4 %
Extraction speed 2.2 X
Track quality 100.0 %
Test CRC 12C4DB15
Copy CRC 12C4DB15
Accurately ripped (confidence 8) [7D9C3A8D] (AR v2)
Copy OK
Track 17
Filename C:\FLACs\Grieg - Lyric Pieces [Gavrilov]\17 - Wedding Day at Troldhaugen.wav
Peak level 99.1 %
Extraction speed 2.4 X
Track quality 100.0 %
Test CRC 837300A3
Copy CRC 837300A3
Accurately ripped (confidence 8) [1EAFD009] (AR v2)
Copy OK
Track 18
Filename C:\FLACs\Grieg - Lyric Pieces [Gavrilov]\18 - At Your Feet.wav
Peak level 77.2 %
Extraction speed 1.9 X
Track quality 99.9 %
Test CRC E9C8A749
Copy CRC E9C8A749
Accurately ripped (confidence 7) [06E8AA1F] (AR v2)
Copy OK
Track 19
Filename C:\FLACs\Grieg - Lyric Pieces [Gavrilov]\19 - At the Cradle.wav
Peak level 32.2 %
Extraction speed 2.4 X
Track quality 100.0 %
Test CRC 7E16D044
Copy CRC 7E16D044
Accurately ripped (confidence 8) [FD98CBD5] (AR v2)
Copy OK
Track 20
Filename C:\FLACs\Grieg - Lyric Pieces [Gavrilov]\20 - Once Upon a Time.wav
Peak level 97.7 %
Extraction speed 2.6 X
Track quality 100.0 %
Test CRC 6F918B12
Copy CRC 6F918B12
Accurately ripped (confidence 8) [98BABCC8] (AR v2)
Copy OK
Track 21
Filename C:\FLACs\Grieg - Lyric Pieces [Gavrilov]\21 - Summer's Eve.wav
Peak level 30.8 %
Extraction speed 1.9 X
Track quality 99.9 %
Test CRC 31EFD8BD
Copy CRC 31EFD8BD
Accurately ripped (confidence 8) [9BC77BAF] (AR v2)
Copy OK
Track 22
Filename C:\FLACs\Grieg - Lyric Pieces [Gavrilov]\22 - Puck.wav
Peak level 97.7 %
Extraction speed 2.1 X
Track quality 100.0 %
Test CRC E8158DA9
Copy CRC E8158DA9
Accurately ripped (confidence 8) [897096CD] (AR v2)
Copy OK
Track 23
Filename C:\FLACs\Grieg - Lyric Pieces [Gavrilov]\23 - Gone.wav
Peak level 74.9 %
Extraction speed 2.6 X
Track quality 100.0 %
Test CRC 974E4299
Copy CRC 974E4299
Accurately ripped (confidence 8) [DD7E5308] (AR v2)
Copy OK
Track 24
Filename C:\FLACs\Grieg - Lyric Pieces [Gavrilov]\24 - Reminiscences.wav
Peak level 34.8 %
Extraction speed 2.3 X
Track quality 100.0 %
Test CRC 6EA4F1FB
Copy CRC 6EA4F1FB
Accurately ripped (confidence 8) [8FA951D1] (AR v2)
Copy OK
All tracks accurately ripped
No errors occurred
End of status report
==== Log checksum 2C1C3D41DA090DB5811CE5F2381B03744D0D2FC62580B041E3D9757F506AF661 ====



Показать сообщения:    

Текущее время: 09-Дек 14:36

Часовой пояс: UTC + 3


Вы не можете начинать темы
Вы не можете отвечать на сообщения
Вы не можете редактировать свои сообщения
Вы не можете удалять свои сообщения
Вы не можете голосовать в опросах
Вы не можете прикреплять файлы к сообщениям
Вы не можете скачивать файлы