(Soundtrack) Последний охотник на ведьм / The Last Witch Hunter (Steve Jablonsky) - 2015, FLAC (tracks+.cue), lossless


Статистика раздачи [Обновить пиров]
Размер:  302 MB   |    Зарегистрирован:  10 месяцев 20 дней   |    Скачан:  1 раз

Полного источника не было: 2 месяца 4 дня

Личеров:  2  [  0 KB/s  ]   Подробная статистика пиров
 
   
 
 
 

[Цитировать]

Последний охотник на ведьм / The Last Witch Hunter
Жанр: Soundtrack
Композитор: Steve Jablonsky
Год выпуска диска: 2015
Год выпуска фильма: 2015
Издатель (лейбл): Milan Music
Номер по каталогу: 399 757-2
Аудиокодек: FLAC (*.flac)
Тип рипа: tracks+.cue
Битрейт аудио: lossless
Продолжительность: 65:02
Источник: скачано с
сайт-источник/ник/другое:
Наличие сканов в содержимом раздачи: Front

01. I Curse You with Life (8:11)
02. Three Is Trouble (3:23)
03. Judgement (3:13)
04. Well Hello, Witch Hunter (4:25)
05. Lights Out (1:07)
06. The Witch Queen (4:07)
07. I Must Remember (3:31)
08. Good Hunting (6:37)
09. Remember Your Death (4:46)
10. This Isn't Real (3:51)
11. I am Reborn (4:21)
12. You Have to Fight (3:03)
13. By Iron and Fire (11:26)
14. At Your Service (3:11)

Лог создания рипа

Exact Audio Copy V1.0 beta 3 from 29. August 2011
EAC extraction logfile from 5. January 2016, 18:16
Steve Jablonsky / The Last Witch Hunter
Used drive : HL-DT-STBD-RE BH10LS38 Adapter: 3 ID: 0
Read mode : SecureUtilize accurate stream : YesDefeat audio cache : YesMake use of C2 pointers : No
Read offset correction : 667Overread into Lead-In and Lead-Out : NoFill up missing offset samples with silence : YesDelete leading and trailing silent blocks : NoNull samples used in CRC calculations : YesUsed interface : Native Win32 interface for Win NT & 2000Gap handling : Appended to previous track
Used output format : User Defined EncoderSelected bitrate : 768 kBit/sQuality : HighAdd ID3 tag : NoCommand line compressor : C:\Program Files (x86)\Exact Audio Copy\FLAC\FLAC.EXEAdditional command line options : -8 -V -T "ARTIST=%artist%" -T "TITLE=%title%" -T "ALBUM=%albumtitle%" -T "DATE=%year%" -T "TRACKNUMBER=%tracknr%" -T "GENRE=%genre%" -T "PERFORMER=%albuminterpret%" -T "COMPOSER=%composer%" %haslyrics%--tag-from-file=LYRICS="%lyricsfile%"%haslyrics% -T "ALBUMARTIST=%albumartist%" -T "ALBUM ARTIST=%albumartist%" -T "DISCNUMBER=%cdnumber%" -T "TOTALDISCS=%totalcds%" -T "TOTALTRACKS=%numtracks%" -T "COMMENT=%comment%" %source% -o %dest%
TOC of the extracted CD
Track | Start | Length | Start sector | End sector --------------------------------------------------------- 1 | 0:00.00 | 8:11.25 | 0 | 36849 2 | 8:11.25 | 3:22.65 | 36850 | 52064 3 | 11:34.15 | 3:13.14 | 52065 | 66553 4 | 14:47.29 | 4:24.74 | 66554 | 86427 5 | 19:12.28 | 1:07.20 | 86428 | 91472 6 | 20:19.48 | 4:06.49 | 91473 | 109971 7 | 24:26.22 | 3:30.74 | 109972 | 125795 8 | 27:57.21 | 6:36.73 | 125796 | 155568 9 | 34:34.19 | 4:45.67 | 155569 | 177010 10 | 39:20.11 | 3:50.56 | 177011 | 194316 11 | 43:10.67 | 4:21.19 | 194317 | 213910 12 | 47:32.11 | 3:02.66 | 213911 | 227626 13 | 50:35.02 | 11:26.25 | 227627 | 279101 14 | 62:01.27 | 3:10.67 | 279102 | 293418
Track 1
Filename C:\Rips\01 - I Curse You with Life.wav
Pre-gap length 0:00:02.00
Peak level 94.4 % Extraction speed 1.3 X Track quality 99.9 % Test CRC 00454DEC Copy CRC 00454DEC Track not present in AccurateRip database Copy OK
Track 2
Filename C:\Rips\02 - Three Is Trouble.wav
Pre-gap length 0:00:00.16
Peak level 94.4 % Extraction speed 1.3 X Track quality 99.9 % Test CRC 05532DAC Copy CRC 05532DAC Track not present in AccurateRip database Copy OK
Track 3
Filename C:\Rips\03 - Judgement.wav
Pre-gap length 0:00:00.74
Peak level 94.4 % Extraction speed 1.3 X Track quality 99.9 % Test CRC 5C6160A8 Copy CRC 5C6160A8 Track not present in AccurateRip database Copy OK
Track 4
Filename C:\Rips\04 - Well Hello, Witch Hunter.wav
Pre-gap length 0:00:00.74
Peak level 94.4 % Extraction speed 1.7 X Track quality 100.0 % Test CRC 3355AC56 Copy CRC 3355AC56 Track not present in AccurateRip database Copy OK
Track 5
Filename C:\Rips\05 - Lights Out.wav
Pre-gap length 0:00:01.37
Peak level 94.4 % Extraction speed 1.3 X Track quality 100.0 % Test CRC 13CDFB2E Copy CRC 13CDFB2E Track not present in AccurateRip database Copy OK
Track 6
Filename C:\Rips\06 - The Witch Queen.wav
Pre-gap length 0:00:01.00
Peak level 94.4 % Extraction speed 1.6 X Track quality 99.9 % Test CRC 45F69CDE Copy CRC 45F69CDE Track not present in AccurateRip database Copy OK
Track 7
Filename C:\Rips\07 - I Must Remember.wav
Peak level 94.3 % Extraction speed 1.9 X Track quality 100.0 % Test CRC 4F14BEFF Copy CRC 4F14BEFF Track not present in AccurateRip database Copy OK
Track 8
Filename C:\Rips\08 - Good Hunting.wav
Peak level 94.4 % Extraction speed 2.2 X Track quality 100.0 % Test CRC 56EF0B4A Copy CRC 56EF0B4A Track not present in AccurateRip database Copy OK
Track 9
Filename C:\Rips\09 - Remember Your Death.wav
Pre-gap length 0:00:01.00
Peak level 94.4 % Extraction speed 2.2 X Track quality 100.0 % Test CRC 38562F17 Copy CRC 38562F17 Track not present in AccurateRip database Copy OK
Track 10
Filename C:\Rips\10 - This Isn't Real.wav
Peak level 94.4 % Extraction speed 2.0 X Track quality 99.9 % Test CRC 0DBC5E92 Copy CRC 0DBC5E92 Track not present in AccurateRip database Copy OK
Track 11
Filename C:\Rips\11 - I am Reborn.wav
Pre-gap length 0:00:00.17
Peak level 94.4 % Extraction speed 2.1 X Track quality 99.9 % Test CRC 6BFEFE47 Copy CRC 6BFEFE47 Track not present in AccurateRip database Copy OK
Track 12
Filename C:\Rips\12 - You Have to Fight.wav
Pre-gap length 0:00:01.37
Peak level 94.5 % Extraction speed 2.3 X Track quality 100.0 % Test CRC 7B2C0113 Copy CRC 7B2C0113 Track not present in AccurateRip database Copy OK
Track 13
Filename C:\Rips\13 - By Iron and Fire.wav
Pre-gap length 0:00:01.37
Peak level 94.4 % Extraction speed 2.8 X Track quality 100.0 % Test CRC 133206FF Copy CRC 133206FF Track not present in AccurateRip database Copy OK
Track 14
Filename C:\Rips\14 - At Your Service.wav
Pre-gap length 0:00:00.26
Peak level 94.6 % Extraction speed 2.2 X Track quality 99.9 % Test CRC B39F8B78 Copy CRC B39F8B78 Track not present in AccurateRip database Copy OK
None of the tracks are present in the AccurateRip database
No errors occurred
End of status report
==== Log checksum 66F309852C2E0176E349470EE35EE045B072A420A6960F6A4F3BB45CE320F9C0 ====

Содержание индексной карты (.CUE)

REM GENRE SoundtrackREM DATE 2015REM DISCID D80F480EREM COMMENT "ExactAudioCopy v1.0b3"FILE "01 - I Curse You with Life.wav" WAVE TRACK 01 AUDIO INDEX 01 00:00:00 TRACK 02 AUDIO INDEX 00 08:11:09FILE "02 - Three Is Trouble.wav" WAVE INDEX 01 00:00:00 TRACK 03 AUDIO INDEX 00 03:21:66FILE "03 - Judgement.wav" WAVE INDEX 01 00:00:00 TRACK 04 AUDIO INDEX 00 03:12:15FILE "04 - Well Hello, Witch Hunter.wav" WAVE INDEX 01 00:00:00 TRACK 05 AUDIO INDEX 00 04:23:37FILE "05 - Lights Out.wav" WAVE INDEX 01 00:00:00 TRACK 06 AUDIO INDEX 00 01:06:20FILE "06 - The Witch Queen.wav" WAVE INDEX 01 00:00:00FILE "07 - I Must Remember.wav" WAVE TRACK 07 AUDIO INDEX 01 00:00:00FILE "08 - Good Hunting.wav" WAVE TRACK 08 AUDIO INDEX 01 00:00:00 TRACK 09 AUDIO INDEX 00 06:35:73FILE "09 - Remember Your Death.wav" WAVE INDEX 01 00:00:00FILE "10 - This Isn't Real.wav" WAVE TRACK 10 AUDIO INDEX 01 00:00:00 TRACK 11 AUDIO INDEX 00 03:50:39FILE "11 - I am Reborn.wav" WAVE INDEX 01 00:00:00 TRACK 12 AUDIO INDEX 00 04:19:57FILE "12 - You Have to Fight.wav" WAVE INDEX 01 00:00:00 TRACK 13 AUDIO INDEX 00 03:01:29FILE "13 - By Iron and Fire.wav" WAVE INDEX 01 00:00:00 TRACK 14 AUDIO INDEX 00 11:25:74FILE "14 - At Your Service.wav" WAVE INDEX 01 00:00:00
[teatrix.ru].t12883.torrent 
Торрент: Зарегистрирован [ 2016-01-17 23:40 ] · 29C1C884E35828D4D7B90C3DC8CB1619D82E6806

Скачать .torrent

Скачать

13 KB

Статус: проверено
Скачан: 1 раз
Размер: 302 MB
terms.php



Быстрый ответ

Имя:

      
Для отправки сообщений необходимо включить JavaScript
Показать сообщения:    

Текущее время: 07-Дек 11:38

Часовой пояс: UTC + 3


Вы можете начинать темы
Вы можете отвечать на сообщения
Вы не можете редактировать свои сообщения
Вы не можете удалять свои сообщения
Вы не можете голосовать в опросах
Вы не можете прикреплять файлы к сообщениям
Вы можете скачивать файлы