[TR24][OF] Alisa Weilerstein - Elgar, Carter: Cello Concertos - 2013 (Classical/Cello/Concerto)


Статистика раздачи [Обновить пиров]
Размер:  641 MB   |    Зарегистрирован:  10 месяцев 15 дней   |    Скачан:  0 раз
Сидов:  1  [  0 KB/s  ]   Личеров:  3  [  0 KB/s  ]   Подробная статистика пиров
 
   
 
 
 

[Цитировать]

Alisa Weilerstein — Edward Elgar, Elliott Carter: Cello Concertos-Classical/Cello/Concerto • Decca • № 0289 478 2735 • 2013 • lossless • FLAC • 24/48 • tracks • 01:22:51 • WEB • Booklet-01-04. Elgar: Cello Concerto op. 85
05-11. Elliott Carter: Cello Concerto
12. Max Bruch: Kol Nidrei op. 47
-Alisa Weilerstein - cello || Staatskapelle Berlin || Daniel Barenboim - conductor-Album teaser-

Dynamic range

foobar2000 1.3.9 / Замер динамического диапазона (DR) 1.1.1
Дата отчёта: 2016-01-17 18:36:57
--------------------------------------------------------------------------------
Анализ: Alisa Weilerstein, Staatskapelle Berlin & Daniel Barenboim / Elgar & Carter Cello Concertos
--------------------------------------------------------------------------------
DR Пики RMS Продолжительность трека
--------------------------------------------------------------------------------
DR12 -0.42 дБ -17.53 дБ 7:48 01-Cello Concerto in E minor, Op.85 - 1. Adagio - Moderato
DR13 -0.42 дБ -19.26 дБ 4:26 02-Cello Concerto in E minor, Op.85 - 2. Lento - Allegro molto
DR14 -1.62 дБ -21.47 дБ 5:08 03-Cello Concerto in E minor, Op.85 - 3. Adagio
DR12 -0.42 дБ -17.27 дБ 11:55 04-Cello Concerto in E minor, Op.85 - 4. Allegro
DR14 -0.04 дБ -19.49 дБ 1:40 05-Cello Concerto - 1. Drammatico
DR14 -0.48 дБ -18.65 дБ 2:44 06-Cello Concerto - 2. Allegro Appassionato
DR15 -0.53 дБ -20.97 дБ 3:12 07-Cello Concerto - 3. Giocoso
DR15 -2.18 дБ -22.73 дБ 3:40 08-Cello Concerto - 4. Lento
DR13 -0.27 дБ -18.66 дБ 3:04 09-Cello Concerto - 5. Maestoso
DR18 -0.19 дБ -25.02 дБ 4:11 10-Cello Concerto - 6. Tranquillo
DR11 0.00 дБ -17.16 дБ 3:48 11-Cello Concerto - 7. Allegro Fantastico
DR15 -0.90 дБ -20.75 дБ 10:48 12-Kol Nidrei - Adagio For Cello, Opus 47
--------------------------------------------------------------------------------
Количество треков: 12
Реальные значения DR: DR14
Частота: 48000 Гц
Каналов: 2
Разрядность: 24
Битрейт: 1394 кбит/с
Кодек: FLAC
================================================================================

Скриншот спектра частот

Track 5
[teatrix.ru].t12884.torrent 
Торрент: Зарегистрирован [ 2016-01-17 23:40 ] · 16DA846858C03837D3B52DEF72D6794AC4D002E2

Скачать .torrent

Скачать

14 KB

Статус: проверено
Скачан: 0 раз
Размер: 641 MB
terms.php



Быстрый ответ

Имя:

      
Для отправки сообщений необходимо включить JavaScript
Показать сообщения:    

Текущее время: 02-Дек 23:10

Часовой пояс: UTC + 3


Вы можете начинать темы
Вы можете отвечать на сообщения
Вы не можете редактировать свои сообщения
Вы не можете удалять свои сообщения
Вы не можете голосовать в опросах
Вы не можете прикреплять файлы к сообщениям
Вы можете скачивать файлы