[TR24][OF] Alisa Weilerstein - Dvorak: Cello concerto - 2014 (Classical/Cello/Concerto)


Статистика раздачи [Обновить пиров]
Размер:  1.33 GB   |    Зарегистрирован:  10 месяцев 21 день   |    Скачан:  1 раз
Сидов:  1  [  0 KB/s  ]   Личеров:  2  [  0 KB/s  ]   Подробная статистика пиров
 
   
 
 
 

[Цитировать]

Alisa Weilerstein — Antonin Dvorak-Classical/Cello/Concerto • Decca • № 0289 478 5705 • 2014 • lossless • FLAC • 24/96 • tracks • 01:07:06 • WEB • Digital booklet-01-03. Cello Concerto in B minor, Op.104
04. Lasst Mich Alein, Op.82
05. Rondo in G minor, Op.94 (version for Cello and Piano)
06. Goin' Home
07. Songs 'My Mother Taught Me', Op.55 No.4
08. Silent Woods, Op.68/5 (version for Cello and Piano)
09. Slavonic Dance No. 8 in G minor Op. 46, No. 8
-Alisa Weilerstein - cello || Anna Polonsky - piano (4-9) || Czech Philharmonic Orchestra || Jirí Belohlávek - conductor-Trailer-

Dynamic range

foobar2000 1.3.9 / Замер динамического диапазона (DR) 1.1.1
Дата отчёта: 2016-01-17 18:12:29
--------------------------------------------------------------------------------
Анализ: Alisa Weilerstein / Dvořák
--------------------------------------------------------------------------------
DR Пики RMS Продолжительность трека
--------------------------------------------------------------------------------
DR15 -0.35 дБ -20.80 дБ 14:42 01-Cello Concerto in B minor, Op.104 - 1. Allegro
DR16 -3.11 дБ -24.88 дБ 11:23 02-Cello Concerto in B minor, Op.104 - 2. Adagio ma non troppo
DR16 -0.31 дБ -21.81 дБ 12:36 03-Cello Concerto in B minor, Op.104 - 3. Finale (Allegro moderato)
DR13 -7.78 дБ -25.91 дБ 4:18 04-Lasst Mich Alein, Op.82
DR15 -3.71 дБ -24.93 дБ 6:58 05-Rondo in G minor, Op.94 - version for Cello and Piano
DR14 -9.12 дБ -29.80 дБ 5:43 06-Goin' Home
DR12 -10.44 дБ -29.69 дБ 2:15 07-Songs My Mother Taught Me, Op.55 No.4
DR14 -5.01 дБ -26.53 дБ 5:04 08-Silent Woods, Op.68/5 - version for Cello and Piano
DR14 -2.06 дБ -19.87 дБ 4:08 09-Slavonic Dance No. 8 in G minor Op. 46, No. 8
--------------------------------------------------------------------------------
Количество треков: 9
Реальные значения DR: DR14
Частота: 96000 Гц
Каналов: 2
Разрядность: 24
Битрейт: 2446 кбит/с
Кодек: FLAC
================================================================================

Скриншот спектра частот

Track 4
[teatrix.ru].t12885.torrent 
Торрент: Зарегистрирован [ 2016-01-17 23:40 ] · 488645F618A620811F6DEBA9748642A83F18A7B7

Скачать .torrent

Скачать

15 KB

Статус: проверено
Скачан: 1 раз
Размер: 1.33 GB
terms.php



Быстрый ответ

Имя:

      
Для отправки сообщений необходимо включить JavaScript
Показать сообщения:    

Текущее время: 08-Дек 01:20

Часовой пояс: UTC + 3


Вы можете начинать темы
Вы можете отвечать на сообщения
Вы не можете редактировать свои сообщения
Вы не можете удалять свои сообщения
Вы не можете голосовать в опросах
Вы не можете прикреплять файлы к сообщениям
Вы можете скачивать файлы