Мадам Бовари / Madame Bovary (Клод Шаброль / Claude Chabrol) [1991, Франция, драма, мелодрама, HDTVRip] DVO + Sub Eng + Original Fre


 

[Цитировать]

Мадам Бовари / Madame Bovary
Страна: Франция
Студия: MK2 Productions, CED Productions, FR3 Films Production, Canal+, Le Club des Investisseurs, Credit Lyonnais, Conseil Général de l'Eure, Conseil Régional de Haute Normandie
Жанр: драма, мелодрама
Год выпуска: 1991
Продолжительность: 02:16:25
Перевод: Профессиональный (двухголосый закадровый)
Cубтитры: английские
Оригинальная аудиодорожка: французский
Режиссер: Клод Шаброль / Claude Chabrol
В ролях: Изабель Юппер, Жан-Франсуа Бальмер, Кристоф Малавуа, Жан Янн, Люка Бельво, Кристиана Минаццоли, Жан-Луи Мори, Флоран Жибассье, Жан-Клод Буйо, Саблин Кампо ...
Описание: История Эммы Бовари — конфликт идеализированной, «книжной» (в понимании главной героини) жизни и суровой реальности. Не сумев смириться с отягощающей, скучной и бессмысленной судьбой, она ввязывается в череду опасных и дерзких поступков, которые приводят к трагическому финалу…
Фильм снят по мотивам романа Гюстава Флобера «Госпожа Бовари» (Madame Bovary, 1856). После публикации романа в журнале писатель был обвинен в оскорблении морали и привлечен к суду. Скандальная известность произведения сделала его популярным, а оправдательный приговор от 7 февраля 1857 года сделал возможной последовавшую в том же году публикацию романа отдельной книгой.- --Madame Bovary (1991)_HDTVRip_Sample_.avi-
-

Награды


-
-Качество видео: HDTVRip
Формат видео: AVI
Видео: 720x432 (1.67:1), 25 fps, XviD build 50 ~1910 kbps avg, 0.25 bit/pixel
Аудио 1: 48 kHz, AC3 Dolby Digital, 2/0 (L,R) ch, ~192 kbps, Русский
Аудио 2: 48 kHz, AC3 Dolby Digital, 2/0 (L,R) ch, ~192 kbps, Французский
Формат субтитров: softsub (SRT)

AviInfo

File: Madame Bovary (1991)_HDTVRip_.avi
Title: Madame Bovary (1991)
Author: Claude Chabrol
Copyleft: Ripped_by_rjhlb777
Genre: Drama, Romance
Category: Movie
Comment: DVO + Original Fre
FileSize: 2245.62 Mb ( 2 354 702 336 bytes )
Play length: 02:16:25.600 (204640 frames)
Subtitles: ENG_ (SubRip format)
Video: 720x432 (1.67:1), 25 fps, XviD build 50 ~1910 kbps avg, 0.25 bit/pixel
Audio #1: 48 kHz, AC3 Dolby Digital, 2/0 (L,R) ch, ~192 kbps
Audio #2: 48 kHz, AC3 Dolby Digital, 2/0 (L,R) ch, ~192 kbps

MediaInfo

General
Complete name : C:\Temp\_RELEASES_\Madame Bovary (1991)_HDTVRip_\Madame Bovary (1991)_HDTVRip_.avi
Format : AVI
Format/Info : Audio Video Interleave
Format profile : OpenDML
File size : 2.19 GiB
Duration : 2h 16mn
Overall bit rate : 2 301 Kbps
Movie name : Madame Bovary (1991)
Director : Claude Chabrol
Genre : Drama, Romance
Writing application : VirtualDubMod 1.5.10.3 | www.virtualdub-fr.org || (build 2550/release)
Original source form/Name : Movie
Copyright : Ripped_by_rjhlb777
Comment : DVO + Original Fre
Video
ID : 0
Format : MPEG-4 Visual
Format profile : Advanced Simple@L5
Format settings, BVOP : 1
Format settings, QPel : No
Format settings, GMC : No warppoints
Format settings, Matrix : Default (MPEG)
Codec ID : XVID
Codec ID/Hint : XviD
Duration : 2h 16mn
Bit rate : 1 899 Kbps
Width : 720 pixels
Height : 432 pixels
Display aspect ratio : 5:3
Frame rate : 25.000 fps
Color space : YUV
Chroma subsampling : 4:2:0
Bit depth : 8 bits
Scan type : Progressive
Compression mode : Lossy
Bits/(Pixel*Frame) : 0.244
Stream size : 1.81 GiB (83%)
Writing library : XviD 1.2.1 (UTC 2008-12-04)
Audio #1
ID : 1
Format : AC-3
Format/Info : Audio Coding 3
Mode extension : CM (complete main)
Format settings, Endianness : Big
Codec ID : 2000
Duration : 2h 16mn
Bit rate mode : Constant
Bit rate : 192 Kbps
Channel(s) : 2 channels
Channel positions : Front: L R
Sampling rate : 48.0 KHz
Compression mode : Lossy
Stream size : 187 MiB (8%)
Alignment : Split accross interleaves
Interleave, duration : 40 ms (1.00 video frame)
Interleave, preload duratio : 500 ms
Audio #2
ID : 2
Format : AC-3
Format/Info : Audio Coding 3
Mode extension : CM (complete main)
Format settings, Endianness : Big
Codec ID : 2000
Duration : 2h 16mn
Bit rate mode : Constant
Bit rate : 192 Kbps
Channel(s) : 2 channels
Channel positions : Front: L R
Sampling rate : 48.0 KHz
Compression mode : Lossy
Stream size : 187 MiB (8%)
Alignment : Split accross interleaves
Interleave, duration : 40 ms (1.00 video frame)
Interleave, preload duratio : 500 ms

Скриншоты сравнения

dvdmoscow
http://screenshotcomparison.com/comparison/158465



Показать сообщения:    

Текущее время: 09-Дек 08:53

Часовой пояс: UTC + 3


Вы не можете начинать темы
Вы не можете отвечать на сообщения
Вы не можете редактировать свои сообщения
Вы не можете удалять свои сообщения
Вы не можете голосовать в опросах
Вы не можете прикреплять файлы к сообщениям
Вы не можете скачивать файлы