Ваджда / Wadjda (Хайфа Аль-Мансор / Haifaa Al-Mansour) [2012, Саудовская Аравия, Германия, драма, BDRip 1080p] VO (Замез) + Sub Rus, Eng + Original Ara


 

[Цитировать]

Ваджда / Wadjda- Страна: Саудовская Аравия, Германия
Жанр: Драма
Год выпуска: 2012
Продолжительность: 01:37:14
Перевод: Одноголосый закадровый (Вячеслав Замез)
Cубтитры: Русские, Английские (SDH), Английские
Оригинальная аудиодорожка: Арабский
Режиссер: Хайфа Аль-Мансор / Haifaa Al-Mansour
В ролях: Ваад Мохаммед, Реим Абдулла, Султан Аль Ассаф, Аланоуд Аджани, Рафа Аль Сенаа, Дана Абдулихан, Рехаб Ахмед
Описание: История десятилетней девочки из Саудовской Аравии, которая мечтает о зеленом велосипеде и преодолевает социальные запреты и табу, чтобы получить его.
Сэмпл: https://yadi.sk/i/b0MoqH9DmBAXz-Кинопоиск | IMDB-Тип релиза: BDRip 1080p (Рип от EbP)
Контейнер: MKV
Видео: AVC, 1916x1076 (16:9), 16113 Kbps, 23,976 fps, 0,326 bpp
Аудио: Русский | AC3, 192 Kbps, CBR, 2 ch, 16 bit
Аудио 2: Арабский | AC3, 640 Kbps, CBR, 6 ch, 16 bit
Субтитры: Русские, Английские (SDH), Английские
Формат субтитров: softsub (SRT)

Награды:

Венецианский кинофестиваль, 2012 год | Победитель:
  • Приз Международной конфедерации художественного кино (C.I.C.A.E.)
  • Награда CinemAvvenire за лучший фильм
  • Международная премия

MediaInfo

GeneralUnique ID : 205106070620285847523455435542583645452 (0x9A4DFE0892D099ADB07512F8AF75150C)Complete name : D:\Фильмы и сериалы\Wadjda 2012 1080p BluRay DD5.1 x264-EbP.mkvFormat : MatroskaFormat version : Version 4 / Version 2File size : 11.7 GiBDuration : 1h 37mnOverall bit rate : 17.3 MbpsEncoded date : UTC 2015-12-12 13:37:38Writing application : mkvmerge v8.1.0 ('Psychedelic Postcard') 64bitWriting library : libebml v1.3.1 + libmatroska v1.4.2DURATION : 01:33:40.070000000NUMBER_OF_FRAMES : 538NUMBER_OF_BYTES : 40160_STATISTICS_WRITING_APP : mkvmerge v8.1.0 ('Psychedelic Postcard') 64bit_STATISTICS_WRITING_DATE_UTC : 2015-12-12 13:37:38_STATISTICS_TAGS : BPS DURATION NUMBER_OF_FRAMES NUMBER_OF_BYTES
VideoID : 1Format : AVCFormat/Info : Advanced Video CodecFormat profile : High@L4.1Format settings, CABAC : YesFormat settings, ReFrames : 4 framesCodec ID : V_MPEG4/ISO/AVCDuration : 1h 37mnBit rate : 16.1 MbpsWidth : 1 916 pixelsHeight : 1 076 pixelsDisplay aspect ratio : 16:9Frame rate mode : ConstantFrame rate : 23.976 fpsColor space : YUVChroma subsampling : 4:2:0Bit depth : 8 bitsScan type : ProgressiveBits/(Pixel*Frame) : 0.326Stream size : 10.9 GiB (93%)Writing library : x264 core 142 r2431+42 c69a006 tMod [8-bit@all X86_64]Encoding settings : cabac=1 / ref=4 / deblock=1:-3:-3 / analyse=0x3:0x133 / me=tesa / subme=11 / psy=1 / fade_compensate=0.00 / psy_rd=1.03:0.00 / mixed_ref=1 / me_range=24 / chroma_me=1 / trellis=2 / 8x8dct=1 / cqm=0 / deadzone=21,11 / fast_pskip=0 / chroma_qp_offset=-2 / threads=12 / lookahead_threads=2 / sliced_threads=0 / nr=0 / decimate=0 / interlaced=0 / bluray_compat=0 / constrained_intra=0 / fgo=0 / bframes=8 / b_pyramid=2 / b_adapt=2 / b_bias=0 / direct=3 / weightb=1 / open_gop=0 / weightp=2 / keyint=250 / keyint_min=23 / scenecut=40 / intra_refresh=0 / rc=crf / mbtree=0 / crf=18.1600 / qcomp=0.75 / qpmin=0:0:0 / qpmax=69:69:69 / qpstep=4 / ip_ratio=1.20 / pb_ratio=1.15 / aq=3:0.60 / aq-sensitivity=10.00 / aq-factor=1.00:1.00:1.00 / aq2=0 / aq3=0Language : ArabicDefault : YesForced : NoColor range : LimitedMatrix coefficients : BT.709DURATION : 01:37:13.828000000NUMBER_OF_FRAMES : 139872NUMBER_OF_BYTES : 11999609679_STATISTICS_WRITING_APP : mkvmerge v8.1.0 ('Psychedelic Postcard') 64bit_STATISTICS_WRITING_DATE_UTC : 2015-12-12 13:37:38_STATISTICS_TAGS : BPS DURATION NUMBER_OF_FRAMES NUMBER_OF_BYTES
Audio #1ID : 2Format : AC-3Format/Info : Audio Coding 3Mode extension : CM (complete main)Format settings, Endianness : BigCodec ID : A_AC3Duration : 1h 37mnBit rate mode : ConstantBit rate : 192 KbpsChannel(s) : 2 channelsChannel positions : Front: L RSampling rate : 48.0 KHzCompression mode : LossyStream size : 134 MiB (1%)Title : VO (Вячеслав Замез)Language : RussianDefault : YesForced : No
Audio #2ID : 3Format : AC-3Format/Info : Audio Coding 3Mode extension : CM (complete main)Format settings, Endianness : BigCodec ID : A_AC3Duration : 1h 37mnBit rate mode : ConstantBit rate : 640 KbpsChannel(s) : 6 channelsChannel positions : Front: L C R, Side: L R, LFESampling rate : 48.0 KHzCompression mode : LossyStream size : 445 MiB (4%)Language : ArabicDefault : NoForced : No
Text #1ID : 4Format : UTF-8Codec ID : S_TEXT/UTF8Codec ID/Info : UTF-8 Plain TextTitle : Roma MiausalovLanguage : RussianDefault : NoForced : No
Text #2ID : 5Format : UTF-8Codec ID : S_TEXT/UTF8Codec ID/Info : UTF-8 Plain TextTitle : SDHLanguage : EnglishDefault : NoForced : No
Text #3ID : 6Format : UTF-8Codec ID : S_TEXT/UTF8Codec ID/Info : UTF-8 Plain TextLanguage : EnglishDefault : NoForced : No
Menu00:00:00.000 : en:00:00:00.00000:06:28.597 : en:00:06:28.59700:11:49.125 : en:00:11:49.12500:17:00.228 : en:00:17:00.22800:20:52.042 : en:00:20:52.04200:29:04.952 : en:00:29:04.95200:34:34.197 : en:00:34:34.19700:39:55.435 : en:00:39:55.43500:47:05.031 : en:00:47:05.03100:53:26.995 : en:00:53:26.99501:01:07.330 : en:01:01:07.33001:08:38.948 : en:01:08:38.94801:15:15.803 : en:01:15:15.80301:20:39.209 : en:01:20:39.20901:26:08.538 : en:01:26:08.53801:31:46.376 : en:01:31:46.376

Скриншоты




Показать сообщения:    

Текущее время: 10-Дек 23:31

Часовой пояс: UTC + 3


Вы не можете начинать темы
Вы не можете отвечать на сообщения
Вы не можете редактировать свои сообщения
Вы не можете удалять свои сообщения
Вы не можете голосовать в опросах
Вы не можете прикреплять файлы к сообщениям
Вы не можете скачивать файлы