(Classical/Piano/Solo) Ravel: Gaspard de la nuit • Prokofiev / Прокофьев: Piano Sonata No.6 (Ivo Pogorelich) - 2002, FLAC (tracks+.cue) lossless


 

[Цитировать]

Ivo Pogorelich — Maurice Ravel: Gaspard de la nuit. Sergei Prokofiev: Piano Sonata No.6-Classical/Piano/Solo • DG • № 463 6782 • 2002 • lossless • FLAC • tracks • 00:52:08 • what.cd-01-03. Ravel: Gaspard de la Nuit
04-07. Prokofiev: Piano Sonata No. 6 in A op. 82
-Ivo Pogorelich - piano-Pogorelich Complete Recordings, выпущенный в 2015 году на DG, полностью присутствует на трекере отдельными раздачами-Ivo Pogorelich - раздачи в lossless-

cue

REM GENRE Classical
REM DATE 1983
REM DISCID 5A0C3907
REM COMMENT "ExactAudioCopy v0.99pb4"
PERFORMER "Ravel, Prokofiev"
TITLE "Gaspard de la nuit; Piano Sonata No.6 (Pogorelich)"
FILE "01 - Ravel- Gaspard de la Nuit - I. Ondine- Lent.wav" WAVE
TRACK 01 AUDIO
TITLE "Ravel: Gaspard de la Nuit - I. Ondine: Lent"
PERFORMER "Ravel, Prokofiev"
PREGAP 00:00:32
INDEX 01 00:00:00
TRACK 02 AUDIO
TITLE "Ravel: Gaspard de la Nuit - II. Le Gibet: Tres lent"
PERFORMER "Ravel, Prokofiev"
INDEX 00 07:16:60
FILE "02 - Ravel- Gaspard de la Nuit - II. Le Gibet- Tres lent.wav" WAVE
INDEX 01 00:00:00
TRACK 03 AUDIO
TITLE "Ravel: Gaspard de la Nuit - III. Scarbo: Modйrй"
PERFORMER "Ravel, Prokofiev"
INDEX 00 06:47:15
FILE "03 - Ravel- Gaspard de la Nuit - III. Scarbo- Modйrй.wav" WAVE
INDEX 01 00:00:00
TRACK 04 AUDIO
TITLE "Prokofiev: Piano Sonata No. 6 in A op. 82 - I. Allegro moderato"
PERFORMER "Ravel, Prokofiev"
INDEX 00 09:21:67
FILE "04 - Prokofiev- Piano Sonata No. 6 in A op. 82 - I. Allegro moderato.wav" WAVE
INDEX 01 00:00:00
TRACK 05 AUDIO
TITLE "Prokofiev: Piano Sonata No. 6 in A op. 82 - II. Allegretto"
PERFORMER "Ravel, Prokofiev"
INDEX 00 08:29:65
FILE "05 - Prokofiev- Piano Sonata No. 6 in A op. 82 - II. Allegretto.wav" WAVE
INDEX 01 00:00:00
TRACK 06 AUDIO
TITLE "Prokofiev: Piano Sonata No. 6 in A op. 82 - III. Tempo di valzer lentissimo"
PERFORMER "Ravel, Prokofiev"
INDEX 00 04:43:12
FILE "06 - Prokofiev- Piano Sonata No. 6 in A op. 82 - III. Tempo di valzer lentissimo.wav" WAVE
INDEX 01 00:00:00
TRACK 07 AUDIO
TITLE "Prokofiev: Piano Sonata No. 6 in A op. 82 - IV. Vivace"
PERFORMER "Ravel, Prokofiev"
INDEX 00 08:15:45
FILE "07 - Prokofiev- Piano Sonata No. 6 in A op. 82 - IV. Vivace.wav" WAVE
INDEX 01 00:00:00

EAC

Exact Audio Copy V0.99 prebeta 4 from 23. January 2008
EAC extraction logfile from 12. November 2008, 19:06
Ravel, Prokofiev / Gaspard de la nuit; Piano Sonata No.6 (Pogorelich)
Used drive : PLEXTOR DVDR PX-800A Adapter: 1 ID: 0
Read mode : Secure
Utilize accurate stream : Yes
Defeat audio cache : Yes
Make use of C2 pointers : No
Read offset correction : 48
Overread into Lead-In and Lead-Out : No
Fill up missing offset samples with silence : Yes
Delete leading and trailing silent blocks : No
Null samples used in CRC calculations : Yes
Used interface : Installed external ASPI interface
Gap handling : Appended to previous track
Used output format : User Defined Encoder
Selected bitrate : 128 kBit/s
Quality : High
Add ID3 tag : No
Command line compressor : C:\Program Files\Exact Audio Copy\Flac\flac.exe
Additional command line options : -V -8 -T "artist=%a" -T "title=%t" -T "album=%g" -T "date=%y" -T "tracknumber=%n" -T "genre=%m" %s
TOC of the extracted CD
Track | Start | Length | Start sector | End sector
---------------------------------------------------------
1 | 0:00.32 | 7:24.40 | 32 | 33371
2 | 7:24.72 | 6:52.08 | 33372 | 64279
3 | 14:17.05 | 9:31.40 | 64280 | 107144
4 | 23:48.45 | 8:33.55 | 107145 | 145674
5 | 32:22.25 | 4:45.50 | 145675 | 167099
6 | 37:08.00 | 8:18.70 | 167100 | 204519
7 | 45:26.70 | 6:42.10 | 204520 | 234679
Track 1
Filename E:\Music\Ravel, Prokofiev - Gaspard de la nuit; Piano Sonata No.6 (Pogorelich)\01 - Ravel- Gaspard de la Nuit - I. Ondine- Lent.wav
Pre-gap length 0:00:02.42
Peak level 67.1 %
Track quality 100.0 %
Test CRC 5B2825D6
Copy CRC 5B2825D6
Accurately ripped (confidence 4) [8143656A]
Copy OK
Track 2
Filename E:\Music\Ravel, Prokofiev - Gaspard de la nuit; Piano Sonata No.6 (Pogorelich)\02 - Ravel- Gaspard de la Nuit - II. Le Gibet- Tres lent.wav
Pre-gap length 0:00:07.73
Peak level 22.5 %
Track quality 100.0 %
Test CRC FD801A7E
Copy CRC FD801A7E
Accurately ripped (confidence 4) [64AD3FA4]
Copy OK
Track 3
Filename E:\Music\Ravel, Prokofiev - Gaspard de la nuit; Piano Sonata No.6 (Pogorelich)\03 - Ravel- Gaspard de la Nuit - III. Scarbo- Modйrй.wav
Pre-gap length 0:00:04.90
Peak level 89.1 %
Track quality 100.0 %
Test CRC 9936F53E
Copy CRC 9936F53E
Accurately ripped (confidence 4) [450A3B35]
Copy OK
Track 4
Filename E:\Music\Ravel, Prokofiev - Gaspard de la nuit; Piano Sonata No.6 (Pogorelich)\04 - Prokofiev- Piano Sonata No. 6 in A op. 82 - I. Allegro moderato.wav
Pre-gap length 0:00:09.64
Peak level 63.3 %
Track quality 100.0 %
Test CRC 30E27CF6
Copy CRC 30E27CF6
Accurately ripped (confidence 5) [9E5209E2]
Copy OK
Track 5
Filename E:\Music\Ravel, Prokofiev - Gaspard de la nuit; Piano Sonata No.6 (Pogorelich)\05 - Prokofiev- Piano Sonata No. 6 in A op. 82 - II. Allegretto.wav
Pre-gap length 0:00:03.86
Peak level 53.2 %
Track quality 100.0 %
Test CRC 5E620A17
Copy CRC 5E620A17
Accurately ripped (confidence 5) [750D3D52]
Copy OK
Track 6
Filename E:\Music\Ravel, Prokofiev - Gaspard de la nuit; Piano Sonata No.6 (Pogorelich)\06 - Prokofiev- Piano Sonata No. 6 in A op. 82 - III. Tempo di valzer lentissimo.wav
Pre-gap length 0:00:02.50
Peak level 64.2 %
Track quality 100.0 %
Test CRC 8361B6F4
Copy CRC 8361B6F4
Accurately ripped (confidence 5) [335707F2]
Copy OK
Track 7
Filename E:\Music\Ravel, Prokofiev - Gaspard de la nuit; Piano Sonata No.6 (Pogorelich)\07 - Prokofiev- Piano Sonata No. 6 in A op. 82 - IV. Vivace.wav
Pre-gap length 0:00:03.33
Peak level 49.3 %
Track quality 99.9 %
Test CRC A5856441
Copy CRC A5856441
Accurately ripped (confidence 5) [231F51D2]
Copy OK
All tracks accurately ripped
No errors occurred
End of status report



Показать сообщения:    

Текущее время: 02-Дек 23:08

Часовой пояс: UTC + 3


Вы не можете начинать темы
Вы не можете отвечать на сообщения
Вы не можете редактировать свои сообщения
Вы не можете удалять свои сообщения
Вы не можете голосовать в опросах
Вы не можете прикреплять файлы к сообщениям
Вы не можете скачивать файлы