(Classical/Piano/Solo) Mussorgsky / Мусоргский: Pictures at an Exhibition / Картинки с выставки • Ravel: Valses nobles et sentimentales (Ivo Pogorelich) - 1997, FLAC (tracks+.cue) lossless


 

[Цитировать]

Ivo Pogorelich — Modest Mussorgsky: Pictures at an Exhibition. Maurice Ravel: Valses nobles et sentimentales-Classical/Piano/Solo • DG • № 437 6672 • 1997 • lossless • FLAC • tracks • 01:01:58 • what.cd-01-16. Mussorgsky: Pictures at an Exhibition
17-24. Ravel: Valses nobles et sentimentales
-Ivo Pogorelich - piano-Ivo Pogorelich - раздачи в lossless-

cue

REM GENRE Classical
REM DATE 1997
REM DISCID 610E8618
REM COMMENT "ExactAudioCopy v0.99pb4"
PERFORMER "Mussorgsky, Ravel"
TITLE "Pictures at an Exhibition; Valses (Pogorelich)"
FILE "01 - Mussorgsky- Pictures at an Exhibition - Promenade.wav" WAVE
TRACK 01 AUDIO
TITLE "Mussorgsky: Pictures at an Exhibition - Promenade"
PERFORMER "Mussorgsky, Ravel"
INDEX 01 00:00:00
FILE "02 - Mussorgsky- Pictures at an Exhibition - I. Gnomus.wav" WAVE
TRACK 02 AUDIO
TITLE "Mussorgsky: Pictures at an Exhibition - I. Gnomus"
PERFORMER "Mussorgsky, Ravel"
INDEX 01 00:00:00
FILE "03 - Mussorgsky- Pictures at an Exhibition - Promenade.wav" WAVE
TRACK 03 AUDIO
TITLE "Mussorgsky: Pictures at an Exhibition - Promenade"
PERFORMER "Mussorgsky, Ravel"
INDEX 01 00:00:00
FILE "04 - Mussorgsky- Pictures at an Exhibition - II. Il vecchio castello.wav" WAVE
TRACK 04 AUDIO
TITLE "Mussorgsky: Pictures at an Exhibition - II. Il vecchio castello"
PERFORMER "Mussorgsky, Ravel"
INDEX 01 00:00:00
FILE "05 - Mussorgsky- Pictures at an Exhibition - Promenade.wav" WAVE
TRACK 05 AUDIO
TITLE "Mussorgsky: Pictures at an Exhibition - Promenade"
PERFORMER "Mussorgsky, Ravel"
INDEX 01 00:00:00
FILE "06 - Mussorgsky- Pictures at an Exhibition - III. Les Tuileries.wav" WAVE
TRACK 06 AUDIO
TITLE "Mussorgsky: Pictures at an Exhibition - III. Les Tuileries"
PERFORMER "Mussorgsky, Ravel"
INDEX 01 00:00:00
FILE "07 - Mussorgsky- Pictures at an Exhibition - IV. Bydlo.wav" WAVE
TRACK 07 AUDIO
TITLE "Mussorgsky: Pictures at an Exhibition - IV. Bydlo"
PERFORMER "Mussorgsky, Ravel"
INDEX 01 00:00:00
FILE "08 - Mussorgsky- Pictures at an Exhibition - Promenade.wav" WAVE
TRACK 08 AUDIO
TITLE "Mussorgsky: Pictures at an Exhibition - Promenade"
PERFORMER "Mussorgsky, Ravel"
INDEX 01 00:00:00
FILE "09 - Mussorgsky- Pictures at an Exhibition - V. Ballet des poussins dans leur coque.wav" WAVE
TRACK 09 AUDIO
TITLE "Mussorgsky: Pictures at an Exhibition - V. Ballet des poussins dans leur coque"
PERFORMER "Mussorgsky, Ravel"
INDEX 01 00:00:00
FILE "10 - Mussorgsky- Pictures at an Exhibition - VI. Samuel Goldenberg und Schmuyle.wav" WAVE
TRACK 10 AUDIO
TITLE "Mussorgsky: Pictures at an Exhibition - VI. Samuel Goldenberg und Schmuyle"
PERFORMER "Mussorgsky, Ravel"
INDEX 01 00:00:00
FILE "11 - Mussorgsky- Pictures at an Exhibition - Promenade.wav" WAVE
TRACK 11 AUDIO
TITLE "Mussorgsky: Pictures at an Exhibition - Promenade"
PERFORMER "Mussorgsky, Ravel"
INDEX 01 00:00:00
FILE "12 - Mussorgsky- Pictures at an Exhibition - VII. Limoges - le marchй.wav" WAVE
TRACK 12 AUDIO
TITLE "Mussorgsky: Pictures at an Exhibition - VII. Limoges - le marchй"
PERFORMER "Mussorgsky, Ravel"
INDEX 01 00:00:00
FILE "13 - Mussorgsky- Pictures at an Exhibition - VIII. Catacombae- Sepulcrum romanum.wav" WAVE
TRACK 13 AUDIO
TITLE "Mussorgsky: Pictures at an Exhibition - VIII. Catacombae: Sepulcrum romanum"
PERFORMER "Mussorgsky, Ravel"
INDEX 01 00:00:00
FILE "14 - Mussorgsky- Pictures at an Exhibition - Con mortuis in lingua mortua.wav" WAVE
TRACK 14 AUDIO
TITLE "Mussorgsky: Pictures at an Exhibition - Con mortuis in lingua mortua"
PERFORMER "Mussorgsky, Ravel"
INDEX 01 00:00:00
FILE "15 - Mussorgsky- Pictures at an Exhibition - IX. La Cabane sur des pattes de poule.wav" WAVE
TRACK 15 AUDIO
TITLE "Mussorgsky: Pictures at an Exhibition - IX. La Cabane sur des pattes de poule"
PERFORMER "Mussorgsky, Ravel"
INDEX 01 00:00:00
FILE "16 - Mussorgsky- Pictures at an Exhibition - X. La Porte des Bohatyrs de Kiev.wav" WAVE
TRACK 16 AUDIO
TITLE "Mussorgsky: Pictures at an Exhibition - X. La Porte des Bohatyrs de Kiev"
PERFORMER "Mussorgsky, Ravel"
INDEX 01 00:00:00
TRACK 17 AUDIO
TITLE "Ravel: Valses nobles et sentimentales - I. Modйrй - trиs franc"
PERFORMER "Mussorgsky, Ravel"
INDEX 00 05:58:23
FILE "17 - Ravel- Valses nobles et sentimentales - I. Modйrй - trиs franc.wav" WAVE
INDEX 01 00:00:00
FILE "18 - Ravel- Valses nobles et sentimentales - II. Assez lent, avec une expression intense.wav" WAVE
TRACK 18 AUDIO
TITLE "Ravel: Valses nobles et sentimentales - II. Assez lent, avec une expression i..."
PERFORMER "Mussorgsky, Ravel"
INDEX 01 00:00:00
FILE "19 - Ravel- Valses nobles et sentimentales - III. Modйrй.wav" WAVE
TRACK 19 AUDIO
TITLE "Ravel: Valses nobles et sentimentales - III. Modйrй"
PERFORMER "Mussorgsky, Ravel"
INDEX 01 00:00:00
FILE "20 - Ravel- Valses nobles et sentimentales - IV. Assez animй.wav" WAVE
TRACK 20 AUDIO
TITLE "Ravel: Valses nobles et sentimentales - IV. Assez animй"
PERFORMER "Mussorgsky, Ravel"
INDEX 01 00:00:00
FILE "21 - Ravel- Valses nobles et sentimentales - V. Presque lent, dans un sentiment intime.wav" WAVE
TRACK 21 AUDIO
TITLE "Ravel: Valses nobles et sentimentales - V. Presque lent, dans un sentiment in..."
PERFORMER "Mussorgsky, Ravel"
INDEX 01 00:00:00
FILE "22 - Ravel- Valses nobles et sentimentales - VI. Vif.wav" WAVE
TRACK 22 AUDIO
TITLE "Ravel: Valses nobles et sentimentales - VI. Vif"
PERFORMER "Mussorgsky, Ravel"
INDEX 01 00:00:00
FILE "23 - Ravel- Valses nobles et sentimentales - VII. Moins vif.wav" WAVE
TRACK 23 AUDIO
TITLE "Ravel: Valses nobles et sentimentales - VII. Moins vif"
PERFORMER "Mussorgsky, Ravel"
INDEX 01 00:00:00
FILE "24 - Ravel- Valses nobles et sentimentales - VIII. Epilogue- Lent.wav" WAVE
TRACK 24 AUDIO
TITLE "Ravel: Valses nobles et sentimentales - VIII. Epilogue: Lent"
PERFORMER "Mussorgsky, Ravel"
INDEX 01 00:00:00

EAC

Exact Audio Copy V0.99 prebeta 4 from 23. January 2008
EAC extraction logfile from 12. November 2008, 18:36
Mussorgsky, Ravel / Pictures at an Exhibition; Valses (Pogorelich)
Used drive : PLEXTOR DVDR PX-800A Adapter: 1 ID: 0
Read mode : Secure
Utilize accurate stream : Yes
Defeat audio cache : Yes
Make use of C2 pointers : No
Read offset correction : 48
Overread into Lead-In and Lead-Out : No
Fill up missing offset samples with silence : Yes
Delete leading and trailing silent blocks : No
Null samples used in CRC calculations : Yes
Used interface : Installed external ASPI interface
Gap handling : Appended to previous track
Used output format : User Defined Encoder
Selected bitrate : 128 kBit/s
Quality : High
Add ID3 tag : No
Command line compressor : C:\Program Files\Exact Audio Copy\Flac\flac.exe
Additional command line options : -V -8 -T "artist=%a" -T "title=%t" -T "album=%g" -T "date=%y" -T "tracknumber=%n" -T "genre=%m" %s
TOC of the extracted CD
Track | Start | Length | Start sector | End sector
---------------------------------------------------------
1 | 0:00.00 | 1:42.25 | 0 | 7674
2 | 1:42.25 | 2:58.05 | 7675 | 21029
3 | 4:40.30 | 1:02.67 | 21030 | 25746
4 | 5:43.22 | 5:29.53 | 25747 | 50474
5 | 11:13.00 | 0:35.52 | 50475 | 53151
6 | 11:48.52 | 1:06.10 | 53152 | 58111
7 | 12:54.62 | 4:19.13 | 58112 | 77549
8 | 17:14.00 | 1:02.47 | 77550 | 82246
9 | 18:16.47 | 1:46.53 | 82247 | 90249
10 | 20:03.25 | 2:45.50 | 90250 | 102674
11 | 22:49.00 | 1:43.62 | 102675 | 110461
12 | 24:32.62 | 1:22.03 | 110462 | 116614
13 | 25:54.65 | 2:18.10 | 116615 | 126974
14 | 28:13.00 | 3:54.27 | 126975 | 144551
15 | 32:07.27 | 4:10.25 | 144552 | 163326
16 | 36:17.52 | 6:07.23 | 163327 | 190874
17 | 42:25.00 | 1:39.00 | 190875 | 198299
18 | 44:04.00 | 3:00.30 | 198300 | 211829
19 | 47:04.30 | 2:45.37 | 211830 | 224241
20 | 49:49.67 | 1:33.03 | 224242 | 231219
21 | 51:22.70 | 2:03.25 | 231220 | 240469
22 | 53:26.20 | 0:30.47 | 240470 | 242766
23 | 53:56.67 | 3:24.08 | 242767 | 258074
24 | 57:21.00 | 4:37.00 | 258075 | 278849
Track 1
Filename E:\Music\Mussorgsky, Ravel - Pictures at an Exhibition; Valses (Pogorelich)\01 - Mussorgsky- Pictures at an Exhibition - Promenade.wav
Pre-gap length 0:00:02.00
Peak level 64.7 %
Track quality 100.0 %
Test CRC 52C51210
Copy CRC 52C51210
Accurately ripped (confidence 3) [DF1C00C1]
Copy OK
Track 2
Filename E:\Music\Mussorgsky, Ravel - Pictures at an Exhibition; Valses (Pogorelich)\02 - Mussorgsky- Pictures at an Exhibition - I. Gnomus.wav
Peak level 99.9 %
Track quality 100.0 %
Test CRC 744C65A3
Copy CRC 744C65A3
Accurately ripped (confidence 3) [B069E51F]
Copy OK
Track 3
Filename E:\Music\Mussorgsky, Ravel - Pictures at an Exhibition; Valses (Pogorelich)\03 - Mussorgsky- Pictures at an Exhibition - Promenade.wav
Peak level 18.5 %
Track quality 100.0 %
Test CRC 6BC49F45
Copy CRC 6BC49F45
Accurately ripped (confidence 3) [446A2F4B]
Copy OK
Track 4
Filename E:\Music\Mussorgsky, Ravel - Pictures at an Exhibition; Valses (Pogorelich)\04 - Mussorgsky- Pictures at an Exhibition - II. Il vecchio castello.wav
Peak level 22.6 %
Track quality 99.9 %
Test CRC 6E5C5F18
Copy CRC 6E5C5F18
Accurately ripped (confidence 3) [A1C88669]
Copy OK
Track 5
Filename E:\Music\Mussorgsky, Ravel - Pictures at an Exhibition; Valses (Pogorelich)\05 - Mussorgsky- Pictures at an Exhibition - Promenade.wav
Peak level 55.4 %
Track quality 100.0 %
Test CRC 699E81B5
Copy CRC 699E81B5
Accurately ripped (confidence 3) [4A0885DB]
Copy OK
Track 6
Filename E:\Music\Mussorgsky, Ravel - Pictures at an Exhibition; Valses (Pogorelich)\06 - Mussorgsky- Pictures at an Exhibition - III. Les Tuileries.wav
Peak level 31.3 %
Track quality 100.0 %
Test CRC 76A02FCC
Copy CRC 76A02FCC
Accurately ripped (confidence 3) [CB51F08D]
Copy OK
Track 7
Filename E:\Music\Mussorgsky, Ravel - Pictures at an Exhibition; Valses (Pogorelich)\07 - Mussorgsky- Pictures at an Exhibition - IV. Bydlo.wav
Peak level 92.7 %
Track quality 100.0 %
Test CRC DF88294C
Copy CRC DF88294C
Accurately ripped (confidence 3) [8658CFB4]
Copy OK
Track 8
Filename E:\Music\Mussorgsky, Ravel - Pictures at an Exhibition; Valses (Pogorelich)\08 - Mussorgsky- Pictures at an Exhibition - Promenade.wav
Peak level 26.5 %
Track quality 100.0 %
Test CRC 35B920C9
Copy CRC 35B920C9
Accurately ripped (confidence 3) [F78B75EB]
Copy OK
Track 9
Filename E:\Music\Mussorgsky, Ravel - Pictures at an Exhibition; Valses (Pogorelich)\09 - Mussorgsky- Pictures at an Exhibition - V. Ballet des poussins dans leur coque.wav
Peak level 31.9 %
Track quality 100.0 %
Test CRC A32A27E2
Copy CRC A32A27E2
Accurately ripped (confidence 3) [53439802]
Copy OK
Track 10
Filename E:\Music\Mussorgsky, Ravel - Pictures at an Exhibition; Valses (Pogorelich)\10 - Mussorgsky- Pictures at an Exhibition - VI. Samuel Goldenberg und Schmuyle.wav
Peak level 93.8 %
Track quality 100.0 %
Test CRC 6969D528
Copy CRC 6969D528
Accurately ripped (confidence 3) [C2F9AF54]
Copy OK
Track 11
Filename E:\Music\Mussorgsky, Ravel - Pictures at an Exhibition; Valses (Pogorelich)\11 - Mussorgsky- Pictures at an Exhibition - Promenade.wav
Peak level 71.5 %
Track quality 100.0 %
Test CRC 1B6D43F9
Copy CRC 1B6D43F9
Accurately ripped (confidence 3) [6FECEA76]
Copy OK
Track 12
Filename E:\Music\Mussorgsky, Ravel - Pictures at an Exhibition; Valses (Pogorelich)\12 - Mussorgsky- Pictures at an Exhibition - VII. Limoges - le marchй.wav
Peak level 74.7 %
Track quality 99.8 %
Test CRC D25EE09E
Copy CRC D25EE09E
Accurately ripped (confidence 3) [C1FF8AFD]
Copy OK
Track 13
Filename E:\Music\Mussorgsky, Ravel - Pictures at an Exhibition; Valses (Pogorelich)\13 - Mussorgsky- Pictures at an Exhibition - VIII. Catacombae- Sepulcrum romanum.wav
Peak level 59.3 %
Track quality 99.9 %
Test CRC DF977605
Copy CRC DF977605
Accurately ripped (confidence 3) [511FFBCD]
Copy OK
Track 14
Filename E:\Music\Mussorgsky, Ravel - Pictures at an Exhibition; Valses (Pogorelich)\14 - Mussorgsky- Pictures at an Exhibition - Con mortuis in lingua mortua.wav
Peak level 8.2 %
Track quality 100.0 %
Test CRC 2FDCDCA1
Copy CRC 2FDCDCA1
Accurately ripped (confidence 3) [A04EF365]
Copy OK
Track 15
Filename E:\Music\Mussorgsky, Ravel - Pictures at an Exhibition; Valses (Pogorelich)\15 - Mussorgsky- Pictures at an Exhibition - IX. La Cabane sur des pattes de poule.wav
Peak level 99.9 %
Track quality 100.0 %
Test CRC 8D8C58D1
Copy CRC 8D8C58D1
Accurately ripped (confidence 3) [2D625429]
Copy OK
Track 16
Filename E:\Music\Mussorgsky, Ravel - Pictures at an Exhibition; Valses (Pogorelich)\16 - Mussorgsky- Pictures at an Exhibition - X. La Porte des Bohatyrs de Kiev.wav
Peak level 99.9 %
Track quality 100.0 %
Test CRC 22405512
Copy CRC 22405512
Accurately ripped (confidence 2) [0295EC09]
Copy OK
Track 17
Filename E:\Music\Mussorgsky, Ravel - Pictures at an Exhibition; Valses (Pogorelich)\17 - Ravel- Valses nobles et sentimentales - I. Modйrй - trиs franc.wav
Pre-gap length 0:00:09.00
Peak level 79.0 %
Track quality 100.0 %
Test CRC D92F2386
Copy CRC D92F2386
Accurately ripped (confidence 3) [295BD808]
Copy OK
Track 18
Filename E:\Music\Mussorgsky, Ravel - Pictures at an Exhibition; Valses (Pogorelich)\18 - Ravel- Valses nobles et sentimentales - II. Assez lent, avec une expression intense.wav
Peak level 27.3 %
Track quality 100.0 %
Test CRC 055B4088
Copy CRC 055B4088
Accurately ripped (confidence 2) [A857FFC8]
Copy OK
Track 19
Filename E:\Music\Mussorgsky, Ravel - Pictures at an Exhibition; Valses (Pogorelich)\19 - Ravel- Valses nobles et sentimentales - III. Modйrй.wav
Peak level 10.6 %
Track quality 100.0 %
Test CRC 2177987D
Copy CRC 2177987D
Accurately ripped (confidence 3) [98DBF2AC]
Copy OK
Track 20
Filename E:\Music\Mussorgsky, Ravel - Pictures at an Exhibition; Valses (Pogorelich)\20 - Ravel- Valses nobles et sentimentales - IV. Assez animй.wav
Peak level 29.9 %
Track quality 100.0 %
Test CRC A9F8E1FE
Copy CRC A9F8E1FE
Accurately ripped (confidence 3) [BBFF4B22]
Copy OK
Track 21
Filename E:\Music\Mussorgsky, Ravel - Pictures at an Exhibition; Valses (Pogorelich)\21 - Ravel- Valses nobles et sentimentales - V. Presque lent, dans un sentiment intime.wav
Peak level 8.0 %
Track quality 100.0 %
Test CRC FC8EB79F
Copy CRC FC8EB79F
Accurately ripped (confidence 3) [8AB1A84B]
Copy OK
Track 22
Filename E:\Music\Mussorgsky, Ravel - Pictures at an Exhibition; Valses (Pogorelich)\22 - Ravel- Valses nobles et sentimentales - VI. Vif.wav
Peak level 31.8 %
Track quality 100.0 %
Test CRC 409EBB99
Copy CRC 409EBB99
Accurately ripped (confidence 3) [C0031F6F]
Copy OK
Track 23
Filename E:\Music\Mussorgsky, Ravel - Pictures at an Exhibition; Valses (Pogorelich)\23 - Ravel- Valses nobles et sentimentales - VII. Moins vif.wav
Peak level 100.0 %
Track quality 100.0 %
Test CRC D0801D6E
Copy CRC D0801D6E
Accurately ripped (confidence 3) [0BF9C457]
Copy OK
Track 24
Filename E:\Music\Mussorgsky, Ravel - Pictures at an Exhibition; Valses (Pogorelich)\24 - Ravel- Valses nobles et sentimentales - VIII. Epilogue- Lent.wav
Peak level 15.9 %
Track quality 100.0 %
Test CRC 136977FB
Copy CRC 136977FB
Accurately ripped (confidence 3) [DA041D86]
Copy OK
All tracks accurately ripped
No errors occurred
End of status report



Показать сообщения:    

Текущее время: 05-Дек 21:39

Часовой пояс: UTC + 3


Вы не можете начинать темы
Вы не можете отвечать на сообщения
Вы не можете редактировать свои сообщения
Вы не можете удалять свои сообщения
Вы не можете голосовать в опросах
Вы не можете прикреплять файлы к сообщениям
Вы не можете скачивать файлы