(Classical/Piano/Solo) Haydn: Piano Sonatas Nos. 19 & 46 (Ivo Pogorelich) - 1992, FLAC (tracks+.cue) lossless


 

[Цитировать]

Ivo Pogorelich — Joseph Haydn: Piano Sonatas Nos. 19 & 46-Classical/Piano/Solo • DG • № 435 6182 2 • 1992 • lossless • FLAC • tracks+.cue • 00:52:05 • what.cd-01-03. Sonata in A flat major, Hob. XVI, No. 46
04-06. Sonata in D major, Hob. XVI, No. 19
-Ivo Pogorelich - piano-Ivo Pogorelich - раздачи в lossless-

cue

REM GENRE Classical
REM DATE 1992
REM DISCID 540C3606
REM COMMENT "ExactAudioCopy v0.99pb4"
PERFORMER "Haydn"
TITLE "Piano Sonatas Nos. 19 & 46 (Pogorelich)"
FILE "01 - Sonata in A flat major, Hob. XVI, No. 46 - I. Allegro moderato.wav" WAVE
TRACK 01 AUDIO
TITLE "Sonata in A flat major, Hob. XVI, No. 46 - I. Allegro moderato"
PERFORMER "Haydn"
PREGAP 00:00:33
INDEX 01 00:00:00
FILE "02 - Sonata in A flat major, Hob. XVI, No. 46 - II. Adagio.wav" WAVE
TRACK 02 AUDIO
TITLE "Sonata in A flat major, Hob. XVI, No. 46 - II. Adagio"
PERFORMER "Haydn"
INDEX 01 00:00:00
FILE "03 - Sonata in A flat major, Hob. XVI, No. 46 - III. Finale. Presto.wav" WAVE
TRACK 03 AUDIO
TITLE "Sonata in A flat major, Hob. XVI, No. 46 - III. Finale. Presto"
PERFORMER "Haydn"
INDEX 01 00:00:00
TRACK 04 AUDIO
TITLE "Sonata in D major, Hob. XVI, No. 19 - I. Moderato"
PERFORMER "Haydn"
INDEX 00 03:58:00
FILE "04 - Sonata in D major, Hob. XVI, No. 19 - I. Moderato.wav" WAVE
INDEX 01 00:00:00
FILE "05 - Sonata in D major, Hob. XVI, No. 19 - II. Andante (Adagio, ma non troppo).wav" WAVE
TRACK 05 AUDIO
TITLE "Sonata in D major, Hob. XVI, No. 19 - II. Andante (Adagio, ma non troppo)"
PERFORMER "Haydn"
INDEX 01 00:00:00
FILE "06 - Sonata in D major, Hob. XVI, No. 19 - III. Finale Allegro assai.wav" WAVE
TRACK 06 AUDIO
TITLE "Sonata in D major, Hob. XVI, No. 19 - III. Finale Allegro assai"
PERFORMER "Haydn"
INDEX 01 00:00:00

EAC

Exact Audio Copy V0.99 prebeta 4 from 23. January 2008
EAC extraction logfile from 12. November 2008, 17:40
Haydn / Piano Sonatas Nos. 19 & 46 (Pogorelich)
Used drive : PLEXTOR DVDR PX-800A Adapter: 1 ID: 0
Read mode : Secure
Utilize accurate stream : Yes
Defeat audio cache : Yes
Make use of C2 pointers : No
Read offset correction : 48
Overread into Lead-In and Lead-Out : No
Fill up missing offset samples with silence : Yes
Delete leading and trailing silent blocks : No
Null samples used in CRC calculations : Yes
Used interface : Installed external ASPI interface
Gap handling : Appended to previous track
Used output format : User Defined Encoder
Selected bitrate : 128 kBit/s
Quality : High
Add ID3 tag : No
Command line compressor : C:\Program Files\Exact Audio Copy\Flac\flac.exe
Additional command line options : -V -8 -T "artist=%a" -T "title=%t" -T "album=%g" -T "date=%y" -T "tracknumber=%n" -T "genre=%m" %s
TOC of the extracted CD
Track | Start | Length | Start sector | End sector
---------------------------------------------------------
1 | 0:00.33 | 9:57.00 | 33 | 44807
2 | 9:57.33 | 13:15.00 | 44808 | 104432
3 | 23:12.33 | 4:06.00 | 104433 | 122882
4 | 27:18.33 | 9:46.00 | 122883 | 166832
5 | 37:04.33 | 11:49.00 | 166833 | 220007
6 | 48:53.33 | 3:12.45 | 220008 | 234452
Track 1
Filename E:\Music\Haydn - Piano Sonatas Nos. 19 & 46 (Pogorelich)\01 - Sonata in A flat major, Hob. XVI, No. 46 - I. Allegro moderato.wav
Pre-gap length 0:00:02.44
Peak level 62.9 %
Track quality 100.0 %
Test CRC DDC939E4
Copy CRC DDC939E4
Track not present in AccurateRip database
Copy OK
Track 2
Filename E:\Music\Haydn - Piano Sonatas Nos. 19 & 46 (Pogorelich)\02 - Sonata in A flat major, Hob. XVI, No. 46 - II. Adagio.wav
Peak level 66.2 %
Track quality 100.0 %
Test CRC 0254202A
Copy CRC 0254202A
Track not present in AccurateRip database
Copy OK
Track 3
Filename E:\Music\Haydn - Piano Sonatas Nos. 19 & 46 (Pogorelich)\03 - Sonata in A flat major, Hob. XVI, No. 46 - III. Finale. Presto.wav
Peak level 77.6 %
Track quality 100.0 %
Test CRC E7A25508
Copy CRC E7A25508
Track not present in AccurateRip database
Copy OK
Track 4
Filename E:\Music\Haydn - Piano Sonatas Nos. 19 & 46 (Pogorelich)\04 - Sonata in D major, Hob. XVI, No. 19 - I. Moderato.wav
Pre-gap length 0:00:08.00
Peak level 98.2 %
Track quality 100.0 %
Test CRC 399FF9F9
Copy CRC 399FF9F9
Track not present in AccurateRip database
Copy OK
Track 5
Filename E:\Music\Haydn - Piano Sonatas Nos. 19 & 46 (Pogorelich)\05 - Sonata in D major, Hob. XVI, No. 19 - II. Andante (Adagio, ma non troppo).wav
Peak level 59.2 %
Track quality 100.0 %
Test CRC 26B2C5BF
Copy CRC 26B2C5BF
Track not present in AccurateRip database
Copy OK
Track 6
Filename E:\Music\Haydn - Piano Sonatas Nos. 19 & 46 (Pogorelich)\06 - Sonata in D major, Hob. XVI, No. 19 - III. Finale Allegro assai.wav
Peak level 96.8 %
Track quality 99.9 %
Test CRC 7054526E
Copy CRC 7054526E
Track not present in AccurateRip database
Copy OK
None of the tracks are present in the AccurateRip database
No errors occurred
End of status report



Показать сообщения:    

Текущее время: 10-Дек 15:48

Часовой пояс: UTC + 3


Вы не можете начинать темы
Вы не можете отвечать на сообщения
Вы не можете редактировать свои сообщения
Вы не можете удалять свои сообщения
Вы не можете голосовать в опросах
Вы не можете прикреплять файлы к сообщениям
Вы не можете скачивать файлы