(Classical/Piano/Solo) Chopin: 4 Scherzi (Ivo Pogorelich) - 1998, FLAC (tracks+.cue) lossless


 

[Цитировать]

Ivo Pogorelich — Frederic Chopin: 4 Scherzi-Classical/Piano/Solo • DG • № 439 9472 9 • 1998 • lossless • FLAC • tracks+.cue • 00:41:52 • what.cd-01. Scherzo no. 1 in B minor op. 20
02. Scherzo no. 2 in B flat minor op. 31
03. Scherzo no. 3 in C sharp minor op. 39
04. Scherzo no. 4 in E major op. 54
-Ivo Pogorelich - piano-Ivo Pogorelich - раздачи в lossless-

cue

REM GENRE Instrumental
REM DATE 1998
REM DISCID 3409D004
REM COMMENT "ExactAudioCopy v0.99pb5"
FILE "Ivo Pogorelich - 1998 - Chopin, 4 Scherzi\01 - Scherzo no. 1 in B minor op. 20.wav" WAVE
TRACK 01 AUDIO
INDEX 01 00:00:00
TRACK 02 AUDIO
INDEX 00 10:56:00
FILE "Ivo Pogorelich - 1998 - Chopin, 4 Scherzi\02 - Scherzo no. 2 in B flat minor op. 31.wav" WAVE
INDEX 01 00:00:00
TRACK 03 AUDIO
INDEX 00 10:34:00
FILE "Ivo Pogorelich - 1998 - Chopin, 4 Scherzi\03 - Scherzo no. 3 in C sharp minor op. 39.wav" WAVE
INDEX 01 00:00:00
TRACK 04 AUDIO
INDEX 00 08:00:00
FILE "Ivo Pogorelich - 1998 - Chopin, 4 Scherzi\04 - Scherzo no. 4 in E major op. 54.wav" WAVE
INDEX 01 00:00:00

EAC

Exact Audio Copy V0.99 prebeta 5 from 4. May 2009
EAC extraction logfile from 7. March 2010, 16:17
Ivo Pogorelich / Chopin, 4 Scherzi
Used drive : HL-DT-STDVDRAM GSA-T50N Adapter: 0 ID: 5
Read mode : Secure
Utilize accurate stream : Yes
Defeat audio cache : Yes
Make use of C2 pointers : No
Read offset correction : 667
Overread into Lead-In and Lead-Out : No
Fill up missing offset samples with silence : Yes
Delete leading and trailing silent blocks : No
Null samples used in CRC calculations : Yes
Used interface : Native Win32 interface for Win NT & 2000
Gap handling : Appended to previous track
Used output format : User Defined Encoder
Selected bitrate : 320 kBit/s
Quality : High
Add ID3 tag : No
Command line compressor : C:\Program Files\Exact Audio Copy\FLAC\FLAC.EXE
Additional command line options : -V -8 -T "artist=%a" -T "title=%t" -T "album=%g" -T "date=%y" -T "tracknumber=%n" -T "genre=%m" %s
TOC of the extracted CD
Track | Start | Length | Start sector | End sector
---------------------------------------------------------
1 | 0:00.00 | 11:03.00 | 0 | 49724
2 | 11:03.00 | 10:42.00 | 49725 | 97874
3 | 21:45.00 | 8:08.00 | 97875 | 134474
4 | 29:53.00 | 11:59.00 | 134475 | 188399
Track 1
Filename D:\Rippings\Ivo Pogorelich - 1998 - Chopin, 4 Scherzi\01 - Scherzo no. 1 in B minor op. 20.wav
Pre-gap length 0:00:02.00
Peak level 95.3 %
Track quality 100.0 %
Test CRC B9F362C5
Copy CRC B9F362C5
Accurately ripped (confidence 12) [364EADA4]
Copy OK
Track 2
Filename D:\Rippings\Ivo Pogorelich - 1998 - Chopin, 4 Scherzi\02 - Scherzo no. 2 in B flat minor op. 31.wav
Pre-gap length 0:00:07.00
Peak level 95.3 %
Track quality 100.0 %
Test CRC 4754162F
Copy CRC 4754162F
Accurately ripped (confidence 12) [AFEC3D81]
Copy OK
Track 3
Filename D:\Rippings\Ivo Pogorelich - 1998 - Chopin, 4 Scherzi\03 - Scherzo no. 3 in C sharp minor op. 39.wav
Pre-gap length 0:00:08.00
Peak level 95.3 %
Track quality 100.0 %
Test CRC 7475354B
Copy CRC 7475354B
Accurately ripped (confidence 12) [9A40E8F5]
Copy OK
Track 4
Filename D:\Rippings\Ivo Pogorelich - 1998 - Chopin, 4 Scherzi\04 - Scherzo no. 4 in E major op. 54.wav
Pre-gap length 0:00:08.00
Peak level 95.3 %
Track quality 100.0 %
Test CRC 8CD8B89C
Copy CRC 8CD8B89C
Accurately ripped (confidence 12) [12483689]
Copy OK
All tracks accurately ripped
No errors occurred
End of status report



Показать сообщения:    

Текущее время: 08-Дек 17:22

Часовой пояс: UTC + 3


Вы не можете начинать темы
Вы не можете отвечать на сообщения
Вы не можете редактировать свои сообщения
Вы не можете удалять свои сообщения
Вы не можете голосовать в опросах
Вы не можете прикреплять файлы к сообщениям
Вы не можете скачивать файлы