Старые дачи (Усадьба ТВ) [2015, биография, документальный, история, SATRip] 2 выпуска из ?


Статистика раздачи [Обновить пиров]
Размер:  713 MB   |    Зарегистрирован:  10 месяцев 19 дней   |    Скачан:  0 раз

Полного источника не было: Никогда

 
   
 
 
 

[Цитировать]

Старые дачи
Дата/Год выпуска: 2015
Страна: Россия
Жанр: биография, документальный, история
Продолжительность: 2x29 мин.
Перевод: Не требуется
Русские субтитры: нет
Телеканал: Усадьба ТВОписание: Программа о подмосковных дачных поселках и их старых и новых обитателях. В центре внимания - великие писатели, артисты, ученые, художники, политики, спортсмены и другие, не менее известные дачники.Сэмпл: https://www.sendspace.com/file/zb4j20
качество: SATRip
формат: AVI
Видео: Xvid 704x400 (16:9) 25fps ~1536kbps
Аудио: MP3 48000Hz stereo 192kbps

Список выпусков/серий

Эпизод 18. Писательский городок (посёлок) Переделкино. Герой программы «Старые дачи» - писатель Юрий Коноплянников.
Эпизод 19. Вдали от любопытных глаз, шума и мегаполисной суеты расположился знаменитый писательский городок Переделкино. На улице Довженко стоит одноэтажная деревянная дача, на которой последние годы жизни провёл легендарный Булат Окуджава - бард, советский и российский поэт, прозаик и композитор.

MediaInfo

GeneralComplete name : J:\Мои раздачи\Старые дачи\19 - Булат Окуджава.aviFormat : AVIFormat/Info : Audio Video InterleaveFile size : 357 MiBDuration : 28mn 50sOverall bit rate : 1 732 Kbps
VideoID : 0Format : MPEG-4 VisualFormat profile : Advanced Simple@L5Format settings, BVOP : 2Format settings, QPel : NoFormat settings, GMC : No warppointsFormat settings, Matrix : Default (H.263)Codec ID : XVIDCodec ID/Hint : XviDDuration : 28mn 50sBit rate : 1 530 KbpsWidth : 704 pixelsHeight : 400 pixelsDisplay aspect ratio : 16:9Frame rate : 25.000 fpsColor space : YUVChroma subsampling : 4:2:0Bit depth : 8 bitsScan type : ProgressiveCompression mode : LossyBits/(Pixel*Frame) : 0.217Stream size : 316 MiB (88%)Writing library : XviD 64
AudioID : 1Format : MPEG AudioFormat version : Version 1Format profile : Layer 3Mode : Joint stereoMode extension : MS StereoCodec ID : 55Codec ID/Hint : MP3Duration : 28mn 50sBit rate mode : ConstantBit rate : 192 KbpsChannel(s) : 2 channelsSampling rate : 48.0 KHzCompression mode : LossyStream size : 39.6 MiB (11%)Alignment : Split accross interleavesInterleave, duration : 40 ms (1.00 video frame)Interleave, preload duration : 500 ms

Скриншоты

Внимание! Раздача ведётся путём добавления новых выпусков

Внимание! Раздача ведётся путём добавления новых выпусков; при каждом добавлении создаётся новый торрент. Чтобы начать докачку нового выпуска, пользователям необходимо сделать следующее:
(1) остановить скачивание,
(2) удалить старый торрент у себя из клиента (старые серии удалять не надо),
(3) скачать новый торрент и запустить его у себя в клиенте вместо старого, при этом указать клиенту путь в старую папку куда и должно происходить скачивание новых выпусков.
Ваш клиент при этом должен произвести хеширование (проверку) старой папки (если не производит сам - помогите ему сделать это). В результате он будет докачивать только те выпуски, которых у Вас ещё нет. Старые выпуски при этом не удаляются, а продолжают раздаваться!
Eсли Вы уже удалили старые выпуски, то предотвратить их повторную закачку можно, сняв галочки в соответствующих местах при запуске нового торрента. По возможности, желательно не удалять старые выпуски как можно дольше, чтобы релизёр не только продолжал раздавать старые выпуски, но и смог сконцентрироваться на новых.
[teatrix.ru].t12899.torrent 
Торрент: Зарегистрирован [ 2016-01-18 12:25 ] · 2EE2FBA93AA839F891CEA39A469F1AF3B47E259D

Скачать .torrent

Скачать

15 KB

Статус: проверено
Скачан: 0 раз
Размер: 713 MB
terms.php



Быстрый ответ

Имя:

      
Для отправки сообщений необходимо включить JavaScript
Показать сообщения:    

Текущее время: 06-Дек 19:03

Часовой пояс: UTC + 3


Вы можете начинать темы
Вы можете отвечать на сообщения
Вы не можете редактировать свои сообщения
Вы не можете удалять свои сообщения
Вы не можете голосовать в опросах
Вы не можете прикреплять файлы к сообщениям
Вы можете скачивать файлы