(Score) Выживший / The Revenant (by Ryuichi Sakamoto, Alva Noto & Bryce Dessner) - 2015, FLAC (tracks+.cue), lossless


Статистика раздачи [Обновить пиров]
Размер:  290 MB   |    Зарегистрирован:  10 месяцев 16 дней   |    Скачан:  2 раза
Сидов:  12  [  0 KB/s  ]   Личеров:  4  [  0 KB/s  ]   Подробная статистика пиров
 
   
 
 

[Цитировать]

Выживший / The Revenant-Жанр: Score
Композитор: Ryuichi Sakamoto, Alva Noto & Bryce Dessner
Год выпуска диска: 2015
Производитель диска: US
Издатель (лейбл): Milan Music
Номер по каталогу: 399 785-2-Аудиокодек: FLAC (*.flac)
Тип рипа: tracks+.cue
Битрейт аудио: lossless
Продолжительность: 01:10:40
Источник: what.cd / nazgul68
Наличие сканов в содержимом раздачи: цифровой буклет из WEB-релиза

Треклист

1. Ryuichi Sakamoto – The Revenant Main Theme (2:41)
2. Alva Noto & Bryce Dessner – Hawk Punished (2:14)
3. Ryuichi Sakamoto & Alva Noto – Carrying Glass (3:07)
4. Ryuichi Sakamoto & Alva Noto – First Dream (3:05)
5. Ryuichi Sakamoto – Killing Hawk (3:49)
6. Ryuichi Sakamoto – Discovering River (1:11)
7. Ryuichi Sakamoto – Goodbye to Hawk (3:41)
8. Ryuichi Sakamoto & Alva Noto – Discovering Buffalo (2:43)
9. Ryuichi Sakamoto – Hell Ensemble (2:38)
10. Ryuichi Sakamoto – Glass and Buffalo Warrior Travel (1:51)
11. Ryuichi Sakamoto – Arriving at Fort Kiowa (1:21)
12. Ryuichi Sakamoto & Alva Noto – Church Dream (2:38)
13. Ryuichi Sakamoto, Alva Noto & Bryce Dessner – Powaqa Rescue (5:35)
14. Bryce Dessner – Imagining Buffalo (2:39)
15. Ryuichi Sakamoto – The Revenant Theme 2 (1:54)
16. Ryuichi Sakamoto & Alva Noto – Second Dream (1:13)
17. Ryuichi Sakamoto – Out of Horse (3:57)
18. Bryce Dessner – Looking for Glass (2:51)
19. Ryuichi Sakamoto, Alva Noto & Bryce Dessner – Cat & Mouse (5:42)
20. Ryuichi Sakamoto – The Revenant Main Theme Atmospheric (2:50)
21. Ryuichi Sakamoto & Bryce Dessner – Final Fight (6:35)
22. Ryuichi Sakamoto – The End (2:16)
23. Ryuichi Sakamoto & Alva Noto – The Revenant Theme (Alva Noto Remodel) (4:00)

Лог создания рипа

Exact Audio Copy V1.0 beta 3 from 29. August 2011
EAC extraction logfile from 12. January 2016, 18:35
Various Artists / The Revenant
Used drive : HL-DT-STBD-RE BH10LS38 Adapter: 3 ID: 0
Read mode : SecureUtilize accurate stream : YesDefeat audio cache : YesMake use of C2 pointers : No
Read offset correction : 667Overread into Lead-In and Lead-Out : NoFill up missing offset samples with silence : YesDelete leading and trailing silent blocks : NoNull samples used in CRC calculations : YesUsed interface : Native Win32 interface for Win NT & 2000Gap handling : Appended to previous track
Used output format : User Defined EncoderSelected bitrate : 768 kBit/sQuality : HighAdd ID3 tag : NoCommand line compressor : C:\Program Files (x86)\Exact Audio Copy\FLAC\FLAC.EXEAdditional command line options : -8 -V -T "ARTIST=%artist%" -T "TITLE=%title%" -T "ALBUM=%albumtitle%" -T "DATE=%year%" -T "TRACKNUMBER=%tracknr%"-T "GENRE=%genre%" -T "PERFORMER=%albuminterpret%" -T "COMPOSER=%composer%" %haslyrics%--tag-from-file=LYRICS="%lyricsfile%"%haslyrics% -T "ALBUMARTIST=%albumartist%"-T "ALBUM ARTIST=%albumartist%" -T "DISCNUMBER=%cdnumber%" -T "TOTALDISCS=%totalcds%" -T "TOTALTRACKS=%numtracks%" -T "COMMENT=%comment%" %source% -o %dest%
TOC of the extracted CD
Track | Start | Length | Start sector | End sector --------------------------------------------------------- 1 | 0:00.00 | 2:41.66 | 0 | 12140 2 | 2:41.66 | 2:14.27 | 12141 | 22217 3 | 4:56.18 | 3:07.39 | 22218 | 36281 4 | 8:03.57 | 3:05.33 | 36282 | 50189 5 | 11:09.15 | 3:49.17 | 50190 | 67381 6 | 14:58.32 | 1:11.62 | 67382 | 72768 7 | 16:10.19 | 3:41.03 | 72769 | 89346 8 | 19:51.22 | 2:43.65 | 89347 | 101636 9 | 22:35.12 | 2:38.26 | 101637 | 113512 10 | 25:13.38 | 1:51.08 | 113513 | 121845 11 | 27:04.46 | 1:21.66 | 121846 | 127986 12 | 28:26.37 | 2:38.13 | 127987 | 139849 13 | 31:04.50 | 5:35.17 | 139850 | 164991 14 | 36:39.67 | 2:39.42 | 164992 | 176958 15 | 39:19.34 | 1:54.53 | 176959 | 185561 16 | 41:14.12 | 1:13.18 | 185562 | 191054 17 | 42:27.30 | 3:57.18 | 191055 | 208847 18 | 46:24.48 | 2:51.32 | 208848 | 221704 19 | 49:16.05 | 5:42.65 | 221705 | 247419 20 | 54:58.70 | 2:50.29 | 247420 | 260198 21 | 57:49.24 | 6:35.71 | 260199 | 289894 22 | 64:25.20 | 2:16.13 | 289895 | 300107 23 | 66:41.33 | 4:00.12 | 300108 | 318119
Track 1
Filename C:\Rips\01 - Ryuichi Sakamoto - The Revenant Main Theme.wav
Pre-gap length 0:00:02.00
Peak level 97.4 % Extraction speed 1.0 X Track quality 100.0 % Test CRC 6621407B Copy CRC 6621407B Track not present in AccurateRip database Copy OK
Track 2
Filename C:\Rips\02 - Alva Noto & Bryce Dessner - Hawk Punished.wav
Peak level 77.7 % Extraction speed 1.0 X Track quality 100.0 % Test CRC 9D1D8646 Copy CRC 9D1D8646 Track not present in AccurateRip database Copy OK
Track 3
Filename C:\Rips\03 - Ryuichi Sakamoto & Alva Noto - Carrying Glass.wav
Peak level 85.9 % Extraction speed 1.2 X Track quality 100.0 % Test CRC F841539C Copy CRC F841539C Track not present in AccurateRip database Copy OK
Track 4
Filename C:\Rips\04 - Ryuichi Sakamoto & Alva Noto - First Dream.wav
Peak level 98.7 % Extraction speed 1.3 X Track quality 100.0 % Test CRC 563CA747 Copy CRC 563CA747 Track not present in AccurateRip database Copy OK
Track 5
Filename C:\Rips\05 - Ryuichi Sakamoto - Killing Hawk.wav
Peak level 98.7 % Extraction speed 1.4 X Track quality 100.0 % Test CRC 84A6C671 Copy CRC 84A6C671 Track not present in AccurateRip database Copy OK
Track 6
Filename C:\Rips\06 - Ryuichi Sakamoto - Discovering River.wav
Peak level 97.7 % Extraction speed 1.1 X Track quality 100.0 % Test CRC B2755EDC Copy CRC B2755EDC Track not present in AccurateRip database Copy OK
Track 7
Filename C:\Rips\07 - Ryuichi Sakamoto - Goodbye to Hawk.wav
Peak level 97.8 % Extraction speed 1.5 X Track quality 100.0 % Test CRC 3601D69F Copy CRC 3601D69F Track not present in AccurateRip database Copy OK
Track 8
Filename C:\Rips\08 - Ryuichi Sakamoto & Alva Noto - Discovering Buffalo.wav
Peak level 97.8 % Extraction speed 1.5 X Track quality 100.0 % Test CRC 27E03D75 Copy CRC 27E03D75 Track not present in AccurateRip database Copy OK
Track 9
Filename C:\Rips\09 - Ryuichi Sakamoto - Hell Ensemble.wav
Peak level 94.9 % Extraction speed 1.3 X Track quality 99.9 % Test CRC 146A5E5E Copy CRC 146A5E5E Track not present in AccurateRip database Copy OK
Track 10
Filename C:\Rips\10 - Ryuichi Sakamoto - Glass and Buffalo Warrior Travel.wav
Peak level 97.8 % Extraction speed 1.5 X Track quality 100.0 % Test CRC A20AF98F Copy CRC A20AF98F Track not present in AccurateRip database Copy OK
Track 11
Filename C:\Rips\11 - Ryuichi Sakamoto - Arriving at Fort Kiowa.wav
Peak level 97.8 % Extraction speed 1.4 X Track quality 100.0 % Test CRC 2AE28048 Copy CRC 2AE28048 Track not present in AccurateRip database Copy OK
Track 12
Filename C:\Rips\12 - Ryuichi Sakamoto & Alva Noto - Church Dream.wav
Peak level 94.4 % Extraction speed 1.7 X Track quality 100.0 % Test CRC 561AD481 Copy CRC 561AD481 Track not present in AccurateRip database Copy OK
Track 13
Filename C:\Rips\13 - Ryuichi Sakamoto, Alva Noto & Bryce Dessner - Powaqa Rescue.wav
Peak level 97.8 % Extraction speed 2.0 X Track quality 100.0 % Test CRC 3C961525 Copy CRC 3C961525 Track not present in AccurateRip database Copy OK
Track 14
Filename C:\Rips\14 - Bryce Dessner - Imagining Buffalo.wav
Peak level 97.8 % Extraction speed 1.8 X Track quality 100.0 % Test CRC 54C953D1 Copy CRC 54C953D1 Track not present in AccurateRip database Copy OK
Track 15
Filename C:\Rips\15 - Ryuichi Sakamoto - The Revenant Theme 2.wav
Peak level 97.8 % Extraction speed 1.7 X Track quality 100.0 % Test CRC 06904FF6 Copy CRC 06904FF6 Track not present in AccurateRip database Copy OK
Track 16
Filename C:\Rips\16 - Ryuichi Sakamoto & Alva Noto - Second Dream.wav
Peak level 93.4 % Extraction speed 1.5 X Track quality 100.0 % Test CRC 441FE162 Copy CRC 441FE162 Track not present in AccurateRip database Copy OK
Track 17
Filename C:\Rips\17 - Ryuichi Sakamoto - Out of Horse.wav
Peak level 85.9 % Extraction speed 2.1 X Track quality 100.0 % Test CRC F9657202 Copy CRC F9657202 Track not present in AccurateRip database Copy OK
Track 18
Filename C:\Rips\18 - Bryce Dessner - Looking for Glass.wav
Peak level 97.8 % Extraction speed 2.0 X Track quality 100.0 % Test CRC F8BAC1A9 Copy CRC F8BAC1A9 Track not present in AccurateRip database Copy OK
Track 19
Filename C:\Rips\19 - Ryuichi Sakamoto, Alva Noto & Bryce Dessner - Cat & Mouse.wav
Peak level 97.8 % Extraction speed 2.3 X Track quality 100.0 % Test CRC C1469CD8 Copy CRC C1469CD8 Track not present in AccurateRip database Copy OK
Track 20
Filename C:\Rips\20 - Ryuichi Sakamoto - The Revenant Main Theme Atmospheric.wav
Peak level 97.8 % Extraction speed 2.2 X Track quality 100.0 % Test CRC 4061AC31 Copy CRC 4061AC31 Track not present in AccurateRip database Copy OK
Track 21
Filename C:\Rips\21 - Ryuichi Sakamoto & Bryce Dessner - Final Fight.wav
Peak level 97.8 % Extraction speed 2.5 X Track quality 100.0 % Test CRC 397DEFC2 Copy CRC 397DEFC2 Track not present in AccurateRip database Copy OK
Track 22
Filename C:\Rips\22 - Ryuichi Sakamoto - The End.wav
Peak level 97.8 % Extraction speed 2.2 X Track quality 100.0 % Test CRC 7D5C478D Copy CRC 7D5C478D Track not present in AccurateRip database Copy OK
Track 23
Filename C:\Rips\23 - Ryuichi Sakamoto & Alva Noto - The Revenant Theme (Alva Noto Remodel).wav
Peak level 97.8 % Extraction speed 2.5 X Track quality 100.0 % Test CRC 4B08A777 Copy CRC 4B08A777 Track not present in AccurateRip database Copy OK
None of the tracks are present in the AccurateRip database
No errors occurred
End of status report
==== Log checksum 30DAF6DAC3E57CD53A949027ED94EA6C7690FEE57851EB8418432CEAFB336CFF ====

Содержание индексной карты (.CUE)

REM GENRE SoundtrackREM DATE 2015REM DISCID 53109117REM COMMENT "ExactAudioCopy v1.0b3"FILE "01 - Ryuichi Sakamoto - The Revenant Main Theme.wav" WAVE TRACK 01 AUDIO INDEX 01 00:00:00FILE "02 - Alva Noto & Bryce Dessner - Hawk Punished.wav" WAVE TRACK 02 AUDIO INDEX 01 00:00:00FILE "03 - Ryuichi Sakamoto & Alva Noto - Carrying Glass.wav" WAVE TRACK 03 AUDIO INDEX 01 00:00:00FILE "04 - Ryuichi Sakamoto & Alva Noto - First Dream.wav" WAVE TRACK 04 AUDIO INDEX 01 00:00:00FILE "05 - Ryuichi Sakamoto - Killing Hawk.wav" WAVE TRACK 05 AUDIO INDEX 01 00:00:00FILE "06 - Ryuichi Sakamoto - Discovering River.wav" WAVE TRACK 06 AUDIO INDEX 01 00:00:00FILE "07 - Ryuichi Sakamoto - Goodbye to Hawk.wav" WAVE TRACK 07 AUDIO INDEX 01 00:00:00FILE "08 - Ryuichi Sakamoto & Alva Noto - Discovering Buffalo.wav" WAVE TRACK 08 AUDIO INDEX 01 00:00:00FILE "09 - Ryuichi Sakamoto - Hell Ensemble.wav" WAVE TRACK 09 AUDIO INDEX 01 00:00:00FILE "10 - Ryuichi Sakamoto - Glass and Buffalo Warrior Travel.wav" WAVE TRACK 10 AUDIO INDEX 01 00:00:00FILE "11 - Ryuichi Sakamoto - Arriving at Fort Kiowa.wav" WAVE TRACK 11 AUDIO INDEX 01 00:00:00FILE "12 - Ryuichi Sakamoto & Alva Noto - Church Dream.wav" WAVE TRACK 12 AUDIO INDEX 01 00:00:00FILE "13 - Ryuichi Sakamoto, Alva Noto & Bryce Dessner - Powaqa Rescue.wav" WAVE TRACK 13 AUDIO INDEX 01 00:00:00FILE "14 - Bryce Dessner - Imagining Buffalo.wav" WAVE TRACK 14 AUDIO INDEX 01 00:00:00FILE "15 - Ryuichi Sakamoto - The Revenant Theme 2.wav" WAVE TRACK 15 AUDIO INDEX 01 00:00:00FILE "16 - Ryuichi Sakamoto & Alva Noto - Second Dream.wav" WAVE TRACK 16 AUDIO INDEX 01 00:00:00FILE "17 - Ryuichi Sakamoto - Out of Horse.wav" WAVE TRACK 17 AUDIO INDEX 01 00:00:00FILE "18 - Bryce Dessner - Looking for Glass.wav" WAVE TRACK 18 AUDIO INDEX 01 00:00:00FILE "19 - Ryuichi Sakamoto, Alva Noto & Bryce Dessner - Cat & Mouse.wav" WAVE TRACK 19 AUDIO INDEX 01 00:00:00FILE "20 - Ryuichi Sakamoto - The Revenant Main Theme Atmospheric.wav" WAVE TRACK 20 AUDIO INDEX 01 00:00:00FILE "21 - Ryuichi Sakamoto & Bryce Dessner - Final Fight.wav" WAVE TRACK 21 AUDIO INDEX 01 00:00:00FILE "22 - Ryuichi Sakamoto - The End.wav" WAVE TRACK 22 AUDIO INDEX 01 00:00:00FILE "23 - Ryuichi Sakamoto & Alva Noto - The Revenant Theme (Alva Noto Remodel).wav" WAVE TRACK 23 AUDIO INDEX 01 00:00:00
[teatrix.ru].t12901.torrent 
Торрент: Зарегистрирован [ 2016-01-18 16:35 ] · B95DDC1021231B34A8433662EC57E6B390FD7046

Скачать .torrent

Скачать

14 KB

Статус: проверено
Скачан: 2 раз
Размер: 290 MB
terms.php



Быстрый ответ

Имя:

      
Для отправки сообщений необходимо включить JavaScript
Показать сообщения:    

Текущее время: 04-Дек 00:53

Часовой пояс: UTC + 3


Вы можете начинать темы
Вы можете отвечать на сообщения
Вы не можете редактировать свои сообщения
Вы не можете удалять свои сообщения
Вы не можете голосовать в опросах
Вы не можете прикреплять файлы к сообщениям
Вы можете скачивать файлы