РАМТ. Старый новый год [2013 г., капустник, TVRip] Российский академический молодежный театр


 

[Цитировать]

РАМТ. Старый новый год Название театра: Российский академический молодежный театр.
Жанр: капустник.
Год выпуска: 2013.
Продолжительность: 01:23:58.
Участники: труппа РАМТа.
Описание:
Каждый год 13 января в РАМТе встречают Старый Новый год.
Традиционный староновогодний капустник сыграли на Большой сцене в формате концерта по заявкам.
"О вреде зеленых диванов" рассказал Алексей Мишаков в образе Юрия Еремина,
семь гномов и товарищ БелоснежкО боролись с гномоедами,
Серый Волк пришел к Бабушке требовать пирожков и дело у них дошло до дуэли,
много-много радости принесли всем "Елочка" а капелла,
"Мы отучились" в формате "Chicago", "Аргентинское танго" для тех кому за...
А ровно в полночь под дружное "Ура!" в РАМТ пришел настоящий театральный Старый Новый год!

Дополнительная информация:
Страна: Россия .

Релиз

Качество: TVRip
Формат: AVI
Видео:..640x480 (1.33:1), 25 fps, XviD MPEG-4 ~1098 kbps avg, 0.14 bit/pixel
Аудио:..44.100 kHz, MPEG Layer 3, 2 ch, ~128.00 kbps avg

Отчет Media Info

Общее
Полное имя : RAMT.Staryj.Novyj.god.2013.XviD.TVRip.fenixclub.avi
Format : AVI
Format/Info : Audio Video Interleave
File size : 743 MiB
Duration : 1h 23mn
Overall bit rate : 1 237 Kbps
Writing library : VirtualDub build 32842/release
Video
ID : 0
Format : MPEG-4 Visual
Format profile : Advanced Simple@L5
Format settings, BVOP : 2
Format settings, QPel : No
Format settings, GMC : No warppoints
Format settings, Matrix : Default (H.263)
Codec ID : XVID
Codec ID/Hint : XviD
Duration : 1h 23mn
Bit rate : 1 099 Kbps
Width : 640 pixels
Height : 480 pixels
Display aspect ratio : 4:3
Frame rate : 25.000 fps
Color space : YUV
Chroma subsampling : 4:2:0
Bit depth : 8 bits
Scan type : Progressive
Compression mode : Lossy
Bits/(Pixel*Frame) : 0.143
Stream size : 660 MiB (89%)
Writing library : XviD 73
Audio
ID : 1
Format : MPEG Audio
Format version : Version 1
Format profile : Layer 3
Codec ID : 55
Codec ID/Hint : MP3
Duration : 1h 23mn
Bit rate mode : Constant
Bit rate : 128 Kbps
Channel(s) : 2 channels
Sampling rate : 44.1 KHz
Compression mode : Lossy
Stream size : 76.9 MiB (10%)
Alignment : Split accross interleaves
Interleave, duration : 40 ms (1.00 video frame)
Interleave, preload duratio : 500 ms.

Скриншоты

Альтернативный хост




Показать сообщения:    

Текущее время: 04-Дек 13:18

Часовой пояс: UTC + 3


Вы не можете начинать темы
Вы не можете отвечать на сообщения
Вы не можете редактировать свои сообщения
Вы не можете удалять свои сообщения
Вы не можете голосовать в опросах
Вы не можете прикреплять файлы к сообщениям
Вы не можете скачивать файлы