(Classical) А.Скрябин - Поэма экстаза, Божественная поэма, Мечты (дир. Неэме Ярви) - 1999, FLAC (image+.cue) lossless


 

[Цитировать]

Александр Скрябин - Поэма экстаза, Божественная поэма, Мечты (дир. Неэме Ярви)
Жанр: Classical
Год издания диска: 1999
Издатель (лейбл): АТ MUSIC
Дата записи: 1871-1915
Аудиокодек: FLAC
Тип рипа: image+.cue
Битрейт аудио: lossless
Продолжительность: 66:42:12
Источник: собственный рип
Наличие сканов в содержимом раздачи: да
Треклист:
1. Поэма экстаза, соч. 54 19:43
А. Харсет - труба
Божественная поэма (Симфония №3), соч. 43
2. Lento 1:01
3. Борьба: Allegro 23:30
4. Наслождения: Lento 12:26
5. Божественная игра: Allegro 9:49
6. Мечта, соч. 24 3:51
Исполнители:
Чикагский симфонический оркестр, дир. Неэме Ярви

Лог создания рипа

Exact Audio Copy V1.0 beta 6 from 9. April 2015
Отчёт EAC об извлечении, выполненном 19. января 2016, 1:34
Александр Скрябин / Скрябин
Дисковод: TSSTcorpCDDVDW TS-L633C Adapter: 1 ID: 0
Режим чтения : ДостоверностьИспользование точного потока : ДаОтключение кэша аудио : ДаИспользование указателей C2 : Нет
Коррекция смещения при чтении : 6Способность читать области Lead-in и Lead-out : НетЗаполнение пропущенных сэмплов тишиной : ДаУдаление блоков с тишиной в начале и конце : НетПри вычислениях CRC использовались нулевые сэмплы : ДаИнтерфейс : Встроенный Win32-интерфейс для Win NT/2000
Выходной формат : Пользовательский кодировщикВыбранный битрейт : 768 kBit/sКачество : ВысокийДобавление ID3-тега : НетУтилита сжатия : C:\Program Files (x86)\Exact Audio Copy\FLAC\FLAC.EXEДополнительные параметры : -6 -V -T "ARTIST=%artist%" -T "TITLE=%title%" -T "ALBUM=%albumtitle%" -T "DATE=%year%" -T "TRACKNUMBER=%tracknr%" -T "GENRE=%genre%" -T "COMMENT=%comment%" -T "BAND=%albuminterpret%" -T "ALBUMARTIST=%albuminterpret%" -T "COMPOSER=%composer%" %haslyrics%--tag-from-file=LYRICS="%lyricsfile%"%haslyrics% -T "DISCNUMBER=%cdnumber%" -T "TOTALDISCS=%totalcds%" -T "TOTALTRACKS=%numtracks%" %hascover%--picture="%coverfile%"%hascover% %source% -o %dest%
TOC извлечённого CD
Трек | Старт | Длительность | Начальный сектор | Конечный сектор --------------------------------------------------------------------- 1 | 0:00.00 | 19:50.00 | 0 | 89249 2 | 19:50.00 | 1:01.00 | 89250 | 93824 3 | 20:51.00 | 23:30.37 | 93825 | 199611 4 | 44:21.37 | 12:25.73 | 199612 | 255559 5 | 56:47.35 | 9:54.52 | 255560 | 300161 6 | 66:42.12 | 3:49.63 | 300162 | 317399
Характеристики диапазона извлечения и сообщения об ошибках
Выбранный диапазон
Имя файла C:\музон\Александр Скрябин - Скрябин.wav
Пиковый уровень 97.7 % Скорость извлечения 3.1 X Качество диапазона 99.9 % CRC теста F2726CAC CRC копии F2726CAC Копирование... OK
Ошибок не произошло
Конец отчёта
==== Контрольная сумма отчёта 24A5373661A039679665A569A190A2AF301194387A62841AEF976709B806F917 ====

Содержание индексной карты (.CUE)

REM GENRE КлассикаREM DATE 1999REM DISCID 43108806REM COMMENT "ExactAudioCopy v1.0b6"PERFORMER "Александр Скрябин"TITLE "Скрябин"FILE "Александр Скрябин - Скрябин.flac" WAVE TRACK 01 AUDIO TITLE "Поэма экстаза, соч. 54" PERFORMER "Александр Скрябин" INDEX 01 00:00:00 TRACK 02 AUDIO TITLE "Lento" PERFORMER "Александр Скрябин" INDEX 01 19:50:00 TRACK 03 AUDIO TITLE "Борьба: Allegro" PERFORMER "Александр Скрябин" INDEX 01 20:51:00 TRACK 04 AUDIO TITLE "Наслождения: Lento" PERFORMER "Александр Скрябин" INDEX 01 44:21:37 TRACK 05 AUDIO TITLE "Божественная игра: Allegro" PERFORMER "Александр Скрябин" INDEX 01 56:47:35 TRACK 06 AUDIO TITLE "Мечта, соч. 24 " PERFORMER "Александр Скрябин" INDEX 01 66:42:12
Доп. информация: Альбом: А.Скрябин. Золотая коллекция



Показать сообщения:    

Текущее время: 06-Дек 13:10

Часовой пояс: UTC + 3


Вы не можете начинать темы
Вы не можете отвечать на сообщения
Вы не можете редактировать свои сообщения
Вы не можете удалять свои сообщения
Вы не можете голосовать в опросах
Вы не можете прикреплять файлы к сообщениям
Вы не можете скачивать файлы