Жорж Бизе - Искатели жемчуга / Georges Bizet - Les Pecheurs de Perles (The Pearl Fishers) (Diana Damrau, Matthew Polenzani, Mariusz Kwiecien) (Gianandrea Noseda / Penny Woolcock) [2016, Opera, HDTVRip-AVC 720p] Sub [Русские][Eng, Ger, Fre, Spa, Swe.]


 

[Цитировать]

-"Метрополитен Опера" представляет
Жорж Бизе · Georges Bizet
25 октября (October 25,) 1838 — 3 июня (June 3,) 1875
»«ИСКАТЕЛИ ЖЕМЧУГА»«
Либретто Эжена Кормона (Eugène Cormon, 1810-1903) и Мишеля Карре (Michel Carré, 1821-1872)
-- Год записи: 16-01-2016
Страна: USA
Жанр: Live Broadcast, Opera
Язык: Французский
ПЕРЕВОД: Субтитры
Субтитры/Subtitles: РУССКИЕ,
English, German, French, Spanish, Swedish
в составе контейнера

Продолжительность: 144 min.
ЛЕЙЛА Диана ДАМРАУ Diana Damrau
НАДИР Мэтью ПОЛЕНЦАНИ Matthew Polenzani
ЗУРГА Мариуш КВЕЧЕНЬ Mariusz Kwiecien
НУРАБАД Никола ТЕСТЕ Nicolas Testé
ХОР и ОРКЕСТР театра Метраполитен Опера
ДИРИЖЁР Джанандреа НОЗЕДА Gianandrea Noseda
РЕЖИССЁР Пенни ВУЛКОК Penny Woolcock

Качество видео: HDTVRip-AVC
Исходник: FullHD [Спасибо, ginofamussa]
♫ Sample ♫
Контейнер: MKV
Видео кодек: H.264
Аудио кодек: AC3
Видео поток: 1280x720, 4000 kbps, 25,000 fps.
Аудио поток: French, 448 kbps, 48,0 KHz, 16-bit, 6 ch (original)

Скриншоты

MediaInfoPart1


-

x264.log


avs [info]: 1280x720p 1:1 @ 25/1 fps (cfr)
x264 [info]: using SAR=1/1
x264 [info]: using cpu capabilities: MMX2 SSE2Fast LZCNT
x264 [info]: profile High, level 4.1
x264 [info]: frame I:644 Avg QP:13.50 size:104944
x264 [info]: frame P:38791 Avg QP:15.72 size: 31236
x264 [info]: frame B:50036 Avg QP:18.87 size: 10197
x264 [info]: consecutive B-frames: 15.1% 25.5% 16.3% 43.0%
x264 [info]: mb I I16..4: 5.4% 71.5% 23.0%
x264 [info]: mb P I16..4: 0.6% 4.1% 0.7% P16..4: 41.6% 30.1% 15.8% 0.0% 0.0% skip: 7.2%
x264 [info]: mb B I16..4: 0.0% 0.2% 0.0% B16..8: 46.4% 10.0% 1.8% direct: 4.4% skip:37.2% L0:39.5% L1:47.8% BI:12.7%
x264 [info]: 8x8 transform intra:75.3% inter:70.6%
x264 [info]: direct mvs spatial:91.6% temporal:8.4%
x264 [info]: coded y,uvDC,uvAC intra: 70.0% 82.1% 65.6% inter: 32.4% 35.4% 5.7%
x264 [info]: i16 v,h,dc,p: 42% 17% 11% 30%
x264 [info]: i8 v,h,dc,ddl,ddr,vr,hd,vl,hu: 20% 10% 36% 4% 6% 8% 5% 7% 5%
x264 [info]: i4 v,h,dc,ddl,ddr,vr,hd,vl,hu: 26% 12% 21% 5% 9% 9% 6% 7% 4%
x264 [info]: i8c dc,h,v,p: 54% 15% 23% 8%
x264 [info]: Weighted P-Frames: Y:0.9% UV:0.2%
x264 [info]: ref P L0: 54.1% 9.0% 25.2% 11.6% 0.1%
x264 [info]: ref B L0: 79.4% 18.1% 2.5%
x264 [info]: ref B L1: 94.3% 5.7%
x264 [info]: kb/s:4000.13
-
General
Unique ID : 244132034899298193683867458962220211227 (0xB7AA1EA0B4AA9C1EBAD850D594C95C1B)
Complete name : Bizet - Les Pecheurs de Perles (MET, 2016)\Les Pecheurs de Perles Pt1.mkv
Format : Matroska
Format version : Version 4 / Version 2
File size : 1.85 GiB
Duration : 59mn 38s
Overall bit rate : 4 450 Kbps
Encoded date : UTC 2016-01-18 19:57:46
Writing application : mkvmerge v8.3.0 ('Over the Horizon') 32bit
Writing library : libebml v1.3.1 + libmatroska v1.4.2
Video
ID : 1
Format : AVC
Format/Info : Advanced Video Codec
Format profile : High@L4.1
Format settings, CABAC : Yes
Format settings, ReFrames : 4 frames
Codec ID : V_MPEG4/ISO/AVC
Duration : 59mn 38s
Bit rate : 4 000 Kbps
Width : 1 280 pixels
Height : 720 pixels
Display aspect ratio : 16:9
Frame rate mode : Constant
Frame rate : 25.000 fps
Color space : YUV
Chroma subsampling : 4:2:0
Bit depth : 8 bits
Scan type : Progressive
Bits/(Pixel*Frame) : 0.174
Stream size : 1.63 GiB (88%)
Writing library : x264 core 148 r2638 7599210
Encoding settings : cabac=1 / ref=3 / deblock=1:0:0 / analyse=0x3:0x113 / me=hex / subme=7 / psy=1 / psy_rd=1.00:0.00 / mixed_ref=1 / me_range=16 / chroma_me=1 / trellis=1 / 8x8dct=1 / cqm=0 / deadzone=21,11 / fast_pskip=1 / chroma_qp_offset=-2 / threads=4 / lookahead_threads=1 / sliced_threads=0 / nr=0 / decimate=1 / interlaced=0 / bluray_compat=0 / constrained_intra=0 / bframes=3 / b_pyramid=2 / b_adapt=1 / b_bias=0 / direct=3 / weightb=1 / open_gop=0 / weightp=2 / keyint=250 / keyint_min=25 / scenecut=40 / intra_refresh=0 / rc_lookahead=40 / rc=2pass / mbtree=1 / bitrate=4000 / ratetol=1.0 / qcomp=0.60 / qpmin=0 / qpmax=69 / qpstep=4 / cplxblur=20.0 / qblur=0.5 / vbv_maxrate=50000 / vbv_bufsize=62500 / nal_hrd=none / filler=0 / ip_ratio=1.40 / aq=1:1.00
Default : Yes
Forced : No
Audio
ID : 2
Format : AC-3
Format/Info : Audio Coding 3
Mode extension : CM (complete main)
Format settings, Endianness : Big
Codec ID : A_AC3
Duration : 59mn 38s
Bit rate mode : Constant
Bit rate : 448 Kbps
Channel(s) : 6 channels
Channel positions : Front: L C R, Side: L R, LFE
Sampling rate : 48.0 KHz
Compression mode : Lossy
Stream size : 191 MiB (10%)
Language : French
Default : Yes
Forced : No
Text #1
ID : 3
Format : UTF-8
Codec ID : S_TEXT/UTF8
Codec ID/Info : UTF-8 Plain Text
Language : Russian
Default : Yes
Forced : Yes
Text #2
ID : 4
Format : UTF-8
Codec ID : S_TEXT/UTF8
Codec ID/Info : UTF-8 Plain Text
Language : English
Default : No
Forced : No
Text #3
ID : 5
Format : UTF-8
Codec ID : S_TEXT/UTF8
Codec ID/Info : UTF-8 Plain Text
Language : French
Default : No
Forced : No
Text #4
ID : 6
Format : UTF-8
Codec ID : S_TEXT/UTF8
Codec ID/Info : UTF-8 Plain Text
Language : German
Default : No
Forced : No
Text #5
ID : 7
Format : UTF-8
Codec ID : S_TEXT/UTF8
Codec ID/Info : UTF-8 Plain Text
Language : Spanish
Default : No
Forced : No
Text #6
ID : 8
Format : UTF-8
Codec ID : S_TEXT/UTF8
Codec ID/Info : UTF-8 Plain Text
Language : Swedish
Default : No
Forced : No

Part2


-

x264.log


avs [info]: 1280x720p 1:1 @ 25/1 fps (cfr)
x264 [info]: using SAR=1/1
x264 [info]: using cpu capabilities: MMX2 SSE2Fast LZCNT
x264 [info]: profile High, level 4.1
x264 [info]: frame I:806 Avg QP:13.91 size: 92010
x264 [info]: frame P:60492 Avg QP:16.38 size: 30274
x264 [info]: frame B:66435 Avg QP:18.85 size: 9781
x264 [info]: consecutive B-frames: 16.7% 37.8% 12.4% 33.1%
x264 [info]: mb I I16..4: 5.5% 73.0% 21.6%
x264 [info]: mb P I16..4: 0.7% 4.7% 0.8% P16..4: 43.3% 28.4% 14.2% 0.0% 0.0% skip: 7.9%
x264 [info]: mb B I16..4: 0.0% 0.2% 0.0% B16..8: 46.1% 9.0% 1.7% direct: 4.4% skip:38.5% L0:39.3% L1:48.3% BI:12.3%
x264 [info]: 8x8 transform intra:75.2% inter:72.0%
x264 [info]: direct mvs spatial:89.8% temporal:10.2%
x264 [info]: coded y,uvDC,uvAC intra: 70.9% 80.3% 59.1% inter: 33.1% 33.8% 4.1%
x264 [info]: i16 v,h,dc,p: 45% 23% 12% 20%
x264 [info]: i8 v,h,dc,ddl,ddr,vr,hd,vl,hu: 18% 12% 33% 4% 7% 8% 6% 7% 6%
x264 [info]: i4 v,h,dc,ddl,ddr,vr,hd,vl,hu: 25% 14% 22% 5% 9% 9% 7% 6% 5%
x264 [info]: i8c dc,h,v,p: 53% 18% 21% 8%
x264 [info]: Weighted P-Frames: Y:3.8% UV:1.4%
x264 [info]: ref P L0: 56.4% 10.8% 22.0% 10.5% 0.2%
x264 [info]: ref B L0: 79.4% 18.5% 2.1%
x264 [info]: ref B L1: 95.3% 4.7%
x264 [info]: kb/s:4000.98
-
General
Unique ID : 196287397131725815012651186919780612770 (0x93AB93DC8E945DFB9EFE0D4830F77AA2)
Complete name : Bizet - Les Pecheurs de Perles (MET, 2016)\Les Pecheurs de Perles Pt2.mkv
Format : Matroska
Format version : Version 4 / Version 2
File size : 2.65 GiB
Duration : 1h 25mn
Overall bit rate : 4 451 Kbps
Encoded date : UTC 2016-01-19 01:23:07
Writing application : mkvmerge v8.3.0 ('Over the Horizon') 32bit
Writing library : libebml v1.3.1 + libmatroska v1.4.2
Video
ID : 1
Format : AVC
Format/Info : Advanced Video Codec
Format profile : High@L4.1
Format settings, CABAC : Yes
Format settings, ReFrames : 4 frames
Codec ID : V_MPEG4/ISO/AVC
Duration : 1h 25mn
Bit rate : 4 000 Kbps
Width : 1 280 pixels
Height : 720 pixels
Display aspect ratio : 16:9
Frame rate mode : Constant
Frame rate : 25.000 fps
Color space : YUV
Chroma subsampling : 4:2:0
Bit depth : 8 bits
Scan type : Progressive
Bits/(Pixel*Frame) : 0.174
Stream size : 2.33 GiB (88%)
Writing library : x264 core 148 r2638 7599210
Encoding settings : cabac=1 / ref=3 / deblock=1:0:0 / analyse=0x3:0x113 / me=hex / subme=7 / psy=1 / psy_rd=1.00:0.00 / mixed_ref=1 / me_range=16 / chroma_me=1 / trellis=1 / 8x8dct=1 / cqm=0 / deadzone=21,11 / fast_pskip=1 / chroma_qp_offset=-2 / threads=4 / lookahead_threads=1 / sliced_threads=0 / nr=0 / decimate=1 / interlaced=0 / bluray_compat=0 / constrained_intra=0 / bframes=3 / b_pyramid=2 / b_adapt=1 / b_bias=0 / direct=3 / weightb=1 / open_gop=0 / weightp=2 / keyint=250 / keyint_min=25 / scenecut=40 / intra_refresh=0 / rc_lookahead=40 / rc=2pass / mbtree=1 / bitrate=4000 / ratetol=1.0 / qcomp=0.60 / qpmin=0 / qpmax=69 / qpstep=4 / cplxblur=20.0 / qblur=0.5 / vbv_maxrate=50000 / vbv_bufsize=62500 / nal_hrd=none / filler=0 / ip_ratio=1.40 / aq=1:1.00
Default : Yes
Forced : No
Audio
ID : 2
Format : AC-3
Format/Info : Audio Coding 3
Mode extension : CM (complete main)
Format settings, Endianness : Big
Codec ID : A_AC3
Duration : 1h 25mn
Bit rate mode : Constant
Bit rate : 448 Kbps
Channel(s) : 6 channels
Channel positions : Front: L C R, Side: L R, LFE
Sampling rate : 48.0 KHz
Compression mode : Lossy
Stream size : 273 MiB (10%)
Language : French
Default : Yes
Forced : No
Text #1
ID : 3
Format : UTF-8
Codec ID : S_TEXT/UTF8
Codec ID/Info : UTF-8 Plain Text
Language : Russian
Default : Yes
Forced : Yes
Text #2
ID : 4
Format : UTF-8
Codec ID : S_TEXT/UTF8
Codec ID/Info : UTF-8 Plain Text
Language : English
Default : No
Forced : No
Text #3
ID : 5
Format : UTF-8
Codec ID : S_TEXT/UTF8
Codec ID/Info : UTF-8 Plain Text
Language : French
Default : No
Forced : No
Text #4
ID : 6
Format : UTF-8
Codec ID : S_TEXT/UTF8
Codec ID/Info : UTF-8 Plain Text
Language : German
Default : No
Forced : No
Text #5
ID : 7
Format : UTF-8
Codec ID : S_TEXT/UTF8
Codec ID/Info : UTF-8 Plain Text
Language : Spanish
Default : No
Forced : No
Text #6
ID : 8
Format : UTF-8
Codec ID : S_TEXT/UTF8
Codec ID/Info : UTF-8 Plain Text
Language : Swedish
Default : No
Forced : No
***The Metropolitan Opera live



Показать сообщения:    

Текущее время: 10-Дек 11:52

Часовой пояс: UTC + 3


Вы не можете начинать темы
Вы не можете отвечать на сообщения
Вы не можете редактировать свои сообщения
Вы не можете удалять свои сообщения
Вы не можете голосовать в опросах
Вы не можете прикреплять файлы к сообщениям
Вы не можете скачивать файлы