Мамаша Кураж и ее дети (Павел Хомский, Леонид Фомин) [2000 г., драма, экранизация, CAMRip] Московской Государственный академический театр им. Моссовета


 

[Цитировать]

Мамаша Кураж и ее дети (2 акта) Название театра: Московской Государственный академический театр им. Моссовета.
Год выпуска: 1999.
Жанр: драма в 2 актах.
Продолжительность: 01:17:52 + 01:06:47 (02:24:40).
Режиссеры: народный артист России Павел Хомский, Леонид Фомин.
Действующие лица и исполнители:
Анна Фирлинг, по прозвищу Мамаша Кураж - народная артистка России Валентина Талызина,
Катрин, её дочь - Марина Кондратьева,
Эйлиф, её старший сын - Александр Бобровский,
Швейцеркас, её младший сын - Евгений Золиков
Питер Ламб, повар - народный артист России Анатолий Васильев,
Иветта Потье - Ирина Климова,
Протестанты:
Командующий - заслуженный артист России Вячеслав Бутенко,
Полковой священник - Андрей Межулис,
Вербовщик - заслуженный артист России Леонид Евтифеев,
Фельдфебель - заслуженный артист России Юрий Кузьменков,
Интендант - Владимир Горюшин,
Солдат с пушкой - Андрей Раппопорт,
Старый крестьянин - заслуженный артист России Вячеслав Гордеев,
Старая крестьянка, его жена - Галина Дашевская,
Молодой крестьянин, их сын - Дмитрий Ошеров,
Солдаты (актеры творческого объединения "АТУМ" под руководством Владимира Аносова): Д. Блажиевский, А. Семенов, Н. Басканчин, Е. Куренков, М. Чувилькин, И. Коротков,
Католики:
Штархемберг, полковник - Евгений Данчевский,
Писарь - Алексей Шмаринов,
Ефрейтор - народный артист России Александр Пашутин,
Одноглазый - Юрий Беркун,
Прапорщик - Леонид Фомин,
Молодой солдат - Дмитрий Журавлёв,
Пожилой солдат - Леонид Сенченко,
Первый солдат - Савелий Кёся,
Второй солдат - Сергей Мухин,
Третий солдат - Александр Пискарев.
Описание:
Пьеса знаменитого немецкого писателя и драматурга написана в 1939 г. Жанр пьесы сам автор определил как хронику из времен тридцатилетней войны. Главная героиня – Анна Фирлинг, торговка, известная под именем Мамаши Кураж – колесит по Европе со своим фургоном - единственным источником существования для нее и ее детей – двух взрослых сыновей и немой дочери. Кураж кормится за счет войны, но от войны же и страдает – мир ей грозит разорением, однако судьбы ее детей складываются трагически - все трое детей один за другим гибнут, но торговка продолжает тащить свой фургон по военным дорогам.
Дополнительная информация:
Страна: Россия .
Выпущено: © Московской Государственный академический театр им. Моссовета.
Автор: Бертольд Брехт.
Перевод с немецкого Соломона Алта.
Сценическая композиция Сергея Коковкина.
Постановка спектакля: народный артист России Павел Хомский.
Режиссер спектакля: Леонид Фомин.
Художник: народный художник России Март Китаев.
Художник по костюмам: заслуженный художник России Виктория Севрюкова.
Композитор: Александр Чевский.
Зонг "Эй, командир" - музыка Пауля Дессау, зонг Иветты - музыка Курта Вайля.
Тексты песен в переводах Соломона Апта, Ефима Эткинда, Аркадия Штейнберга, Семена Кирсанова, Сергея Коковкина, Александра Митникова.
Режиссер по пластике: Сергей Виноградов.
Художник по свету: Дамир Исмагилов.
Премьера состоялась 7 мая 2000 года.
Запись: 18.11.2000 года.

О спектакле.
Программка.
Пресса.
Релиз
Большое спасибо SKEnic за предоставленный материал!!!

Качество видео:...CAMRip
Формат:.................AVI

Видео

1-й акт - 688x512 (1.34:1), 25 fps, XviD build 73 ~1797 kbps avg, 0.20 bit/pixel,
2-й акт - 688x512 (1.34:1), 25 fps, XviD build 73 ~2126 kbps avg, 0.24 bit/pixel
Аудио:..48 kHz, AC3 Dolby Digital, 2/0 (L,R) ch, ~192 kbps

Отчет MI

1-й акт
Общее
Полное имя : Mamasha.Kurazh.i.eyo.deti_Moskovskij.GAT.im.Mossoveta.(2.akta).2000.XviD.CAMRip.fenixclub\Mamasha.Kurazh.i.eyo.deti_Moskovskij.GAT.im.Mossoveta.2000_1-j.akt.avi
Format : AVI
Format/Info : Audio Video Interleave
File size : 1.09 GiB
Duration : 1h 17mn
Overall bit rate : 1 999 Kbps
Writing application : VirtualDubMod 1.5.10.3 | www.virtualdub-fr.org || (build 2550/release)
Writing library : VirtualDubMod build 2550/release
Video
ID : 0
Format : MPEG-4 Visual
Format profile : Advanced Simple@L5
Format settings, BVOP : 2
Format settings, QPel : No
Format settings, GMC : No warppoints
Format settings, Matrix : Custom
Codec ID : XVID
Codec ID/Hint : XviD
Duration : 1h 17mn
Bit rate : 1 798 Kbps
Width : 688 pixels
Height : 512 pixels
Display aspect ratio : 4:3
Frame rate : 25.000 fps
Color space : YUV
Chroma subsampling : 4:2:0
Bit depth : 8 bits
Scan type : Progressive
Compression mode : Lossy
Bits/(Pixel*Frame) : 0.204
Stream size : 1 001 MiB (90%)
Writing library : XviD 73
Audio
ID : 1
Format : AC-3
Format/Info : Audio Coding 3
Mode extension : CM (complete main)
Format settings, Endianness : Big
Codec ID : 2000
Duration : 1h 17mn
Bit rate mode : Constant
Bit rate : 192 Kbps
Channel(s) : 2 channels
Channel positions : Front: L R
Sampling rate : 48.0 KHz
Compression mode : Lossy
Stream size : 107 MiB (10%)
Alignment : Split accross interleaves
Interleave, duration : 40 ms (1.00 video frame)
Interleave, preload duratio : 500 ms.
2-я часть
Общее
Полное имя : Mamasha.Kurazh.i.eyo.deti_Moskovskij.GAT.im.Mossoveta.(2.akta).2000.XviD.CAMRip.fenixclub\Mamasha.Kurazh.i.eyo.deti_Moskovskij.GAT.im.Mossoveta.2000_2-j.akt.avi
Format : AVI
Format/Info : Audio Video Interleave
File size : 1.09 GiB
Duration : 1h 6mn
Overall bit rate : 2 328 Kbps
Writing application : VirtualDubMod 1.5.10.3 | www.virtualdub-fr.org || (build 2550/release)
Writing library : VirtualDubMod build 2550/release
Video
ID : 0
Format : MPEG-4 Visual
Format profile : Advanced Simple@L5
Format settings, BVOP : 2
Format settings, QPel : No
Format settings, GMC : No warppoints
Format settings, Matrix : Custom
Codec ID : XVID
Codec ID/Hint : XviD
Duration : 1h 6mn
Bit rate : 2 126 Kbps
Width : 688 pixels
Height : 512 pixels
Display aspect ratio : 4:3
Frame rate : 25.000 fps
Color space : YUV
Chroma subsampling : 4:2:0
Bit depth : 8 bits
Scan type : Progressive
Compression mode : Lossy
Bits/(Pixel*Frame) : 0.241
Stream size : 1 016 MiB (91%)
Writing library : XviD 73
Audio
ID : 1
Format : AC-3
Format/Info : Audio Coding 3
Mode extension : CM (complete main)
Format settings, Endianness : Big
Codec ID : 2000
Duration : 1h 6mn
Bit rate mode : Constant
Bit rate : 192 Kbps
Channel(s) : 2 channels
Channel positions : Front: L R
Sampling rate : 48.0 KHz
Compression mode : Lossy
Stream size : 91.7 MiB (8%)
Alignment : Split accross interleaves
Interleave, duration : 40 ms (1.00 video frame)
Interleave, preload duratio : 500 ms.

Скриншоты


Альтернативный хост





Показать сообщения:    

Текущее время: 05-Дек 01:24

Часовой пояс: UTC + 3


Вы не можете начинать темы
Вы не можете отвечать на сообщения
Вы не можете редактировать свои сообщения
Вы не можете удалять свои сообщения
Вы не можете голосовать в опросах
Вы не можете прикреплять файлы к сообщениям
Вы не можете скачивать файлы