(Classical) Robert de Visee - La Musique de la Chambre du Roy, Vol.2 - Manuel Staropoli, Massimo Marchese, Rosita Ippolito, Manuel Tomadin - 2013, FLAC (image+.cue) lossless


 

[Цитировать]

Robert de Visee - La Musique de la Chambre du Roy, Vol.2 - Manuel Staropoli, Massimo Marchese, Rosita Ippolito, Manuel Tomadin
Жанр: Classical
Год издания диска: 2013
Издатель (лейбл): Brilliant Classics
Номер по каталогу: 94437
Дата записи: 2012
Аудиокодек: FLAC
Тип рипа: image+.cue
Битрейт аудио: lossless
Продолжительность: 54:29
Источник: собственный рип
Наличие сканов в содержимом раздачи: да
Треклист:
Robert de Visée (c.1655-1733)
[1]-[6] Suite in C minor
[7]-[12] Suite in D major
[13] Entrée d’Apollon
[14]-[18] Suite in E minor
[19] Chaconne
[20]-[24] Suite in B flat major
[25]-[29] Suite in F minor
Исполнители:
Manuel Staropoli recorders, baroque flute
Massimo Marchese theorbo
Rosita Ippolito viola da gamba
Manuel Tomadin harpsichord

Лог создания рипа

Exact Audio Copy V1.0 beta 3 from 29. August 2011
EAC extraction logfile from 2. May 2015, 20:33
Manuel Staropoli, Massimo Marchese, Rosita Ippolito, Manuel Tomadin / Robert de Visee - La Musique de la Chambre du Roy, Vol.2
Used drive : HL-DT-STDVDRAM GU70N Adapter: 0 ID: 0
Read mode : SecureUtilize accurate stream : YesDefeat audio cache : YesMake use of C2 pointers : No
Read offset correction : 48Overread into Lead-In and Lead-Out : NoFill up missing offset samples with silence : YesDelete leading and trailing silent blocks : NoNull samples used in CRC calculations : YesUsed interface : Native Win32 interface for Win NT & 2000
Used output format : User Defined EncoderSelected bitrate : 128 kBit/sQuality : HighAdd ID3 tag : NoCommand line compressor : C:\Program Files (x86)\Exact Audio Copy\Flac\flac.exeAdditional command line options : -V -8 -T "Date=%year%" -T "Genre=%genre%" %source%
TOC of the extracted CD
Track | Start | Length | Start sector | End sector --------------------------------------------------------- 1 | 0:00.00 | 1:15.20 | 0 | 5644 2 | 1:15.20 | 3:32.10 | 5645 | 21554 3 | 4:47.30 | 1:16.64 | 21555 | 27318 4 | 6:04.19 | 2:39.24 | 27319 | 39267 5 | 8:43.43 | 1:23.53 | 39268 | 45545 6 | 10:07.21 | 0:49.58 | 45546 | 49278 7 | 10:57.04 | 2:53.73 | 49279 | 62326 8 | 13:51.02 | 1:02.16 | 62327 | 66992 9 | 14:53.18 | 2:03.57 | 66993 | 76274 10 | 16:57.00 | 1:22.65 | 76275 | 82489 11 | 18:19.65 | 0:41.13 | 82490 | 85577 12 | 19:01.03 | 0:37.25 | 85578 | 88377 13 | 19:38.28 | 4:32.61 | 88378 | 108838 14 | 24:11.14 | 2:52.15 | 108839 | 121753 15 | 27:03.29 | 1:01.41 | 121754 | 126369 16 | 28:04.70 | 2:33.64 | 126370 | 137908 17 | 30:38.59 | 0:38.69 | 137909 | 140827 18 | 31:17.53 | 1:09.26 | 140828 | 146028 19 | 32:27.04 | 3:54.54 | 146029 | 163632 20 | 36:21.58 | 2:21.70 | 163633 | 174277 21 | 38:43.53 | 1:10.47 | 174278 | 179574 22 | 39:54.25 | 2:24.59 | 179575 | 190433 23 | 42:19.09 | 1:48.46 | 190434 | 198579 24 | 44:07.55 | 1:05.40 | 198580 | 203494 25 | 45:13.20 | 3:46.49 | 203495 | 220493 26 | 48:59.69 | 1:10.33 | 220494 | 225776 27 | 50:10.27 | 2:08.26 | 225777 | 235402 28 | 52:18.53 | 1:19.60 | 235403 | 241387 29 | 53:38.38 | 0:51.20 | 241388 | 245232
Range status and errors
Selected range
Filename C:\temp\Robert de Visee - La Musique de la Chambre du Roy, Vol.2\Robert de Visee - La Musique de la Chambre du Roy, Vol.2.wav
Peak level 94.6 % Extraction speed 2.0 X Range quality 100.0 % Test CRC F926D56A Copy CRC F926D56A Copy OK
No errors occurred
AccurateRip summary
Track 1 accurately ripped (confidence 2) [25A84E2F] (AR v2)Track 2 accurately ripped (confidence 2) [E3056A08] (AR v2)Track 3 accurately ripped (confidence 2) [1D1455C5] (AR v2)Track 4 accurately ripped (confidence 2) [DDD9B855] (AR v2)Track 5 accurately ripped (confidence 2) [513DB737] (AR v2)Track 6 accurately ripped (confidence 2) [6E123883] (AR v2)Track 7 accurately ripped (confidence 2) [9B7D8E9B] (AR v2)Track 8 accurately ripped (confidence 2) [BD5D8E5D] (AR v2)Track 9 accurately ripped (confidence 2) [7FE7528D] (AR v2)Track 10 accurately ripped (confidence 2) [CD94FA72] (AR v2)Track 11 accurately ripped (confidence 2) [EFD266A8] (AR v2)Track 12 accurately ripped (confidence 2) [4B947752] (AR v2)Track 13 accurately ripped (confidence 2) [89C8B630] (AR v2)Track 14 accurately ripped (confidence 2) [978005D4] (AR v2)Track 15 accurately ripped (confidence 2) [F0C8AC80] (AR v2)Track 16 accurately ripped (confidence 2) [A21AEAC9] (AR v2)Track 17 accurately ripped (confidence 2) [147A364C] (AR v2)Track 18 accurately ripped (confidence 2) [7485CA28] (AR v2)Track 19 accurately ripped (confidence 2) [61A6E263] (AR v2)Track 20 accurately ripped (confidence 2) [19293191] (AR v2)Track 21 accurately ripped (confidence 2) [BC6737C8] (AR v2)Track 22 accurately ripped (confidence 2) [D6351002] (AR v2)Track 23 accurately ripped (confidence 2) [3C25D1A5] (AR v2)Track 24 accurately ripped (confidence 2) [1B9FB5B8] (AR v2)Track 25 accurately ripped (confidence 2) [0EE0AD23] (AR v2)Track 26 accurately ripped (confidence 2) [EFDC5C85] (AR v2)Track 27 accurately ripped (confidence 2) [72131489] (AR v2)Track 28 accurately ripped (confidence 2) [16B30119] (AR v2)Track 29 accurately ripped (confidence 2) [D73AB3CA] (AR v2)
All tracks accurately ripped
End of status report
==== Log checksum 24EBB0921A0B12255343C3A7C6B4F0D01F7F325CB1E2DB8B0727FD838587621B ====



Показать сообщения:    

Текущее время: 08-Дек 12:57

Часовой пояс: UTC + 3


Вы не можете начинать темы
Вы не можете отвечать на сообщения
Вы не можете редактировать свои сообщения
Вы не можете удалять свои сообщения
Вы не можете голосовать в опросах
Вы не можете прикреплять файлы к сообщениям
Вы не можете скачивать файлы