Американский друг / Der amerikanische Freund / The American Friend (Вим Вендерс / Wim Wenders) [1977, Германия (ФРГ), Франция, триллер, драма, криминал, детектив, HDRip] MVO (Кармен Видео)


 

[Цитировать]

Американский друг / Der amerikanische Freund
Страна: Германия (ФРГ), Франция
Жанр: триллер, драма, криминал, детектив
Год выпуска: 1977
Продолжительность: 02:07:41
Перевод: Профессиональный (многоголосый, закадровый) Кармен Видео
Cубтитры: нет
Режиссер: Вим Вендерс / Wim Wenders
В ролях: Деннис Хоппер, Бруно Ганц, Лиза Кройцер, Жерар Блен
Описание: Рамочник из Гамбурга Джонатан Циммерманн случайно знакомится с Томом Рипли, который торгует поддельными произведениями искусства, и связан с мафией. Судьба Циммерманна определена, когда он высокомерно отказывается пожать руку Рипли. Уязвленный Рипли, узнав, что у Циммерманна лейкемия, путем хитроумной комбинации убеждает его, что дни его сочтены. Сообщник Рипли предлагает Циммерману стать наемным убийцей, посулив за это большие деньги его семье, которая вскоре останется без кормильца. Джонатан, понимая, что обречен (медицинские анализы фальсифицируются), соглашается, и становится пешкой в большой игре Рипли…
Доп. информация:
Качество видео: HDRip - BDRip 720
Формат видео: AVI
Видео: 720x432 (1.67:1), 23.976 fps, XviD build 73 ~1434 kbps avg, 0.19 bit/pixel
Аудио: 48 kHz, AC3 Dolby Digital, 2/0 (L,R) ch, ~192 kbps

MediaInfo

General
Complete name : C:\Users\User\Desktop\Der.amerikanische.Freund.1977.HDRip.MVO_by_LBS.avi
Format : AVI
Format/Info : Audio Video Interleave
File size : 1.46 GiB
Duration : 2h 7mn
Overall bit rate : 1 636 Kbps
Director : Last Boy Scout
Writing application : VirtualDubMod 1.5.10.3 | www.virtualdub-fr.org || (build 2550/release)
Comment : HDRip MVO (Кармен Видео)
Video
ID : 0
Format : MPEG-4 Visual
Format profile : Advanced Simple@L5
Format settings, BVOP : 1
Format settings, QPel : No
Format settings, GMC : No warppoints
Format settings, Matrix : Custom
Codec ID : XVID
Codec ID/Hint : XviD
Duration : 2h 7mn
Bit rate : 1 434 Kbps
Width : 720 pixels
Height : 432 pixels
Display aspect ratio : 1.667
Frame rate : 23.976 fps
Color space : YUV
Chroma subsampling : 4:2:0
Bit depth : 8 bits
Scan type : Progressive
Compression mode : Lossy
Bits/(Pixel*Frame) : 0.192
Stream size : 1.28 GiB (88%)
Writing library : XviD 73
Audio
ID : 1
Format : AC-3
Format/Info : Audio Coding 3
Mode extension : CM (complete main)
Format settings, Endianness : Big
Codec ID : 2000
Duration : 2h 7mn
Bit rate mode : Constant
Bit rate : 192 Kbps
Channel(s) : 2 channels
Channel positions : Front: L R
Sampling rate : 48.0 KHz
Bit depth : 16 bits
Compression mode : Lossy
Stream size : 175 MiB (12%)
Alignment : Split accross interleaves
Interleave, duration : 42 ms (1.00 video frame)
Interleave, preload duration : 500 ms

Скриншоты




Показать сообщения:    

Текущее время: 03-Дек 16:42

Часовой пояс: UTC + 3


Вы не можете начинать темы
Вы не можете отвечать на сообщения
Вы не можете редактировать свои сообщения
Вы не можете удалять свои сообщения
Вы не можете голосовать в опросах
Вы не можете прикреплять файлы к сообщениям
Вы не можете скачивать файлы