Американский друг / Der amerikanische Freund (Вим Вендерс / Wim Wenders) [1977, Германия, Франция, криминальная драма, BDRip 720p] [Criterion Collection] MVO + Sub (Rus, Eng) + Original Eng


 

[Цитировать]

Американский друг / Der amerikanische Freund
Страна: Германия, Франция
Жанр: криминальная драма
Год выпуска: 1977
Продолжительность: 02:07:42
Перевод: Профессиональный (многоголосый закадровый) Кармен Видео
Cубтитры: русские, английские
Оригинальная аудиодорожка: английский-Режиссер: Вим Вендерс / Wim Wenders
В ролях: Деннис Хоппер, Бруно Ганц, Лиза Кройцер, Жерар Блен, Николас Рэй, Андреас Дедеке, Сэмюэл Фуллер, Петер Лилиенталь, Даниель Шмид, Жан Эсташ, Лу Кастель, Рудольф Шюндлер, Сэнди Уайтлоу, Энцо Робутти, Дэвид Блю, Вим Вендерс
Описание: По мотивам романа Патриции Хайсмит «Игра Рипли».
У Джонатана Циммермана, окантовщика, диагностирована лейкемия. Рипли, американский торговец произведениями искусства, занимающийся подделками, использует болезнь Циммермана, чтобы нанять его в качестве киллера. Циммерман соглашается, поскольку желает обеспечить свою семью на будущее. Вскоре его жизнь превращается в кошмар - он погружается в мир обмана и предательства.
IMDb || КиноПоиск-Тип релиза: BDRip 720p [IDE]
Контейнер: MKV
Видео: x264/AVC, 1194x720 at 23.976 fps, 9330 kbps
Аудио#1: Russian: 48 kHz, AC3, 2.0 ch, 192 kbps
Аудио#2: English: 48 kHz, AC3, 5.1 ch, 640 kbps
Аудио#3: English: 48 kHz, AAC, 2.0 ch, 74 kbps |комментарии Вима Вендерса и Денниса Хоппера
Формат субтитров: softsub (SRT)
Сэмпл

MediaInfo

General
Unique ID : 232920346277424413373952557951453142902 (0xAF3AD3B3573F3EDDB48EC2E8312A9F76)
Complete name : Der amerikanische Freund.1977.Criterion.720p.x264-IDE. rutracker.mkv
Format : Matroska
Format version : Version 2
File size : 9.30 GiB
Duration : 2h 7mn
Overall bit rate : 10.4 Mbps
Movie name : Release for RuTracker
Writing application : mkvmerge v5.0.1 ('Es ist Sommer') built on Nov 6 2011 16:23:40
Writing library : libebml v1.2.2 + libmatroska v1.3.0
Video
ID : 1
Format : AVC
Format/Info : Advanced Video Codec
Format profile : High@L4.1
Format settings, CABAC : Yes
Format settings, ReFrames : 9 frames
Codec ID : V_MPEG4/ISO/AVC
Duration : 2h 7mn
Width : 1 194 pixels
Height : 720 pixels
Display aspect ratio : 1.658
Frame rate mode : Constant
Frame rate : 23.976 fps
Color space : YUV
Chroma subsampling : 4:2:0
Bit depth : 8 bits
Scan type : Progressive
Title : Der amerikanische Freund.1977.Criterion.720p.x264-IDE. rutracker
Writing library : x264 core 148 r2638+53 bb29004 t_mod_Custom [8-bit@all X86_64]
Encoding settings : cabac=1 / ref=9 / deblock=1:-3:-3 / analyse=0x3:0x133 / me=umh / subme=11 / psy=1 / fade_compensate=0.00 / psy_rd=1.05:0.00 / mixed_ref=1 / me_range=48 / chroma_me=1 / trellis=2 / 8x8dct=1 / cqm=0 / deadzone=21,11 / fast_pskip=1 / chroma_qp_offset=-2 / threads=8 / lookahead_threads=2 / sliced_threads=0 / nr=0 / decimate=0 / interlaced=0 / bluray_compat=0 / constrained_intra=0 / fgo=0 / bframes=11 / b_pyramid=2 / b_adapt=2 / b_bias=0 / direct=3 / weightb=1 / open_gop=0 / weightp=2 / keyint=250 / keyint_min=23 / scenecut=40 / intra_refresh=0 / rc_lookahead=150 / rc=crf / mbtree=0 / crf=17.4000 / qcomp=0.70 / qpmin=0:0:0 / qpmax=69:69:69 / qpstep=4 / vbv_maxrate=50000 / vbv_bufsize=62500 / crf_max=0.0 / nal_hrd=none / filler=0 / ip_ratio=1.20 / pb_ratio=1.10 / aq=3:0.55 / aq-sensitivity=10.00 / aq-factor=1.00:1.00:1.00 / aq2=0 / aq3=0 / zones=530,785,crf=15.2
Language : English
Default : Yes
Forced : No
Audio #1
ID : 2
Format : AC-3
Format/Info : Audio Coding 3
Mode extension : CM (complete main)
Format settings, Endianness : Big
Codec ID : A_AC3
Duration : 2h 7mn
Bit rate mode : Constant
Bit rate : 192 Kbps
Channel(s) : 2 channels
Channel positions : Front: L R
Sampling rate : 48.0 KHz
Bit depth : 16 bits
Compression mode : Lossy
Stream size : 175 MiB (2%)
Title : Кармен Видео
Language : Russian
Default : Yes
Forced : No
Audio #2
ID : 3
Format : AC-3
Format/Info : Audio Coding 3
Mode extension : CM (complete main)
Format settings, Endianness : Big
Codec ID : A_AC3
Duration : 2h 7mn
Bit rate mode : Constant
Bit rate : 640 Kbps
Channel(s) : 6 channels
Channel positions : Front: L C R, Side: L R, LFE
Sampling rate : 48.0 KHz
Bit depth : 16 bits
Compression mode : Lossy
Stream size : 585 MiB (6%)
Language : English
Default : No
Forced : No
Audio #3
ID : 4
Format : AAC
Format/Info : Advanced Audio Codec
Format profile : HE-AAC / LC
Codec ID : A_AAC
Duration : 2h 7mn
Channel(s) : 2 channels
Channel positions : Front: L R
Sampling rate : 48.0 KHz / 24.0 KHz
Compression mode : Lossy
Title : комментарии Вима Вендерса и Денниса Хоппера
Language : English
Default : No
Forced : No
Text #1
ID : 5
Format : UTF-8
Codec ID : S_TEXT/UTF8
Codec ID/Info : UTF-8 Plain Text
Language : Russian
Default : No
Forced : No
Text #2
ID : 6
Format : UTF-8
Codec ID : S_TEXT/UTF8
Codec ID/Info : UTF-8 Plain Text
Language : English
Default : No
Forced : No
Menu
00:00:00.000 : en:Cowboy in Hamburg
00:06:15.000 : en:Lot 132
00:12:59.737 : en:"I count you in"
00:21:46.805 : en:"Will he remember me?"
00:32:13.974 : en:Minot's Proposition
00:39:26.614 : en:No more time
00:51:01.892 : en:Paris by metro
01:01:05.370 : en:"I'm confused"
01:06:27.984 : en:One of those days
01:12:25.424 : en:A private arrangement
01:18:55.981 : en:Tools of the trade
01:22:11.885 : en:Ticket to ride
01:33:49.415 : en:A very nasty way
01:40:09.295 : en:"You bet your life"
01:47:03.208 : en:"I'm thinking about you all the time"
01:55:40.892 : en:A lot of trouble
01:59:55.814 : en:"I pity the poor immigrant"

Скриншоты




Показать сообщения:    

Текущее время: 09-Дек 04:57

Часовой пояс: UTC + 3


Вы не можете начинать темы
Вы не можете отвечать на сообщения
Вы не можете редактировать свои сообщения
Вы не можете удалять свои сообщения
Вы не можете голосовать в опросах
Вы не можете прикреплять файлы к сообщениям
Вы не можете скачивать файлы