Баския / Basquiat (Джулиан Шнабель / Julian Schnabel) [1996, США, драма, биография, WEB-DL 720p] 2x MVO + DVO + Sub Rus, Eng + Original Eng


 

[Цитировать]

Баския / Basquiat
-Страна: США
Жанр: Драма, биография
Год выпуска: 1996
Продолжительность: 01:46:23-Перевод 1: Профессиональный (многоголосый, закадровый) West Video
Перевод 2: Профессиональный (многоголосый, закадровый) Premier Digital
Перевод 3: Профессиональный (двухголосый)
Cубтитры: русские, английские
Оригинальная аудиодорожка: английский-Режиссер: Джулиан Шнабель / Julian Schnabel-В ролях: Джеффри Райт, Майкл Уинкотт, Бенисио Дель Торо, Клер Форлани, Дэвид Боуи, Деннис Хоппер, Гари Олдман, Кристофер Уокен, Уиллем Дефо, Жан-Клод Ла Марр-Описание:
История короткой, но насыщенной драматическими событиями жизни негритянского художника, представителя манхэттенской богемы, Жана-Майкла Баския на фоне артистической жизни Нью-Йорка. Его полотна, так же, как образ жизни, (он не знал, что делать с обрушившийся на него славой), бесчисленные романы, страсть к наркотикам, — все это привело к саморазрушению — вызвали в 80-е годы постоянный ажиотаж в прессе.-Сэмпл: Скачать-Тип релиза: WEB-DL 720p
Контейнер: MKV-Видео: 1280x720 (16:9); 2 316 Kbps; 23.976 fps; 0.105 bpp
Аудио 1: Russian; AC3; 48.0 KHz; 6ch; 384 Kbps MVO West Video
Аудио 2: Russian; AC3; 48.0 KHz; 6ch; 448 Kbps MVO Premier Digital
Аудио 3: Russian; AC3; 48.0 KHz; 2ch; 192 Kbps DVO
Аудио 4: English; AC3; 48.0 KHz; 6ch; 448 Kbps

MediaInfo

Format : Matroska
Format version : Version 4 / Version 2
File size : 2.88 GiB
Duration : 1h 46mn
Overall bit rate : 3 856 Kbps
Encoded date : UTC 2016-01-18 10:33:58
Writing application : mkvmerge v8.3.0 ('Over the Horizon') 64bit
Writing library : libebml v1.3.1 + libmatroska v1.4.2
Attachements : poster.jpg
DURATION : 01:39:05.950000000
NUMBER_OF_FRAMES : 901
NUMBER_OF_BYTES : 53618
_STATISTICS_WRITING_APP : mkvmerge v8.3.0 ('Over the Horizon') 64bit
_STATISTICS_WRITING_DATE_UT : 2016-01-18 10:33:58
_STATISTICS_TAGS : BPS DURATION NUMBER_OF_FRAMES NUMBER_OF_BYTES
Video
ID : 1
Format : AVC
Format/Info : Advanced Video Codec
Format profile : High@L3.1
Format settings, CABAC : Yes
Format settings, ReFrames : 5 frames
Codec ID : V_MPEG4/ISO/AVC
Duration : 1h 46mn
Bit rate : 2 307 Kbps
Width : 1 280 pixels
Height : 720 pixels
Display aspect ratio : 16:9
Frame rate mode : Constant
Frame rate : 23.976 fps
Color space : YUV
Chroma subsampling : 4:2:0
Bit depth : 8 bits
Scan type : Progressive
Bits/(Pixel*Frame) : 0.104
Stream size : 1.72 GiB (60%)
Default : Yes
Forced : No
Audio #1
ID : 2
Format : AC-3
Format/Info : Audio Coding 3
Mode extension : CM (complete main)
Format settings, Endianness : Big
Codec ID : A_AC3
Duration : 1h 46mn
Bit rate mode : Constant
Bit rate : 384 Kbps
Channel(s) : 6 channels
Channel positions : Front: L C R, Side: L R, LFE
Sampling rate : 48.0 KHz
Compression mode : Lossy
Delay relative to video : -83ms
Stream size : 294 MiB (10%)
Title : MVO West Video
Language : Russian
Default : Yes
Forced : No
Audio #2
ID : 3
Format : AC-3
Format/Info : Audio Coding 3
Mode extension : CM (complete main)
Format settings, Endianness : Big
Codec ID : A_AC3
Duration : 1h 46mn
Bit rate mode : Constant
Bit rate : 448 Kbps
Channel(s) : 6 channels
Channel positions : Front: L C R, Side: L R, LFE
Sampling rate : 48.0 KHz
Compression mode : Lossy
Delay relative to video : -83ms
Stream size : 343 MiB (12%)
Title : MVO Premier Digital
Language : Russian
Default : No
Forced : No
Audio #3
ID : 4
Format : AC-3
Format/Info : Audio Coding 3
Mode extension : CM (complete main)
Format settings, Endianness : Big
Codec ID : A_AC3
Duration : 1h 46mn
Bit rate mode : Constant
Bit rate : 192 Kbps
Channel(s) : 2 channels
Channel positions : Front: L R
Sampling rate : 48.0 KHz
Compression mode : Lossy
Delay relative to video : -83ms
Stream size : 147 MiB (5%)
Title : DVO
Language : Russian
Default : No
Forced : No
Audio #4
ID : 5
Format : AC-3
Format/Info : Audio Coding 3
Mode extension : CM (complete main)
Format settings, Endianness : Big
Codec ID : A_AC3
Duration : 1h 46mn
Bit rate mode : Constant
Bit rate : 448 Kbps
Channel(s) : 6 channels
Channel positions : Front: L C R, Side: L R, LFE
Sampling rate : 48.0 KHz
Compression mode : Lossy
Delay relative to video : -83ms
Stream size : 343 MiB (12%)
Title : eng 5.1
Language : English
Default : No
Forced : No
Text #1
ID : 6
Format : UTF-8
Codec ID : S_TEXT/UTF8
Codec ID/Info : UTF-8 Plain Text
Language : English
Default : No
Forced : No
Text #2
ID : 7
Format : UTF-8
Codec ID : S_TEXT/UTF8
Codec ID/Info : UTF-8 Plain Text
Language : Russian
Default : No
Forced : No

Скриншоты




Показать сообщения:    

Текущее время: 06-Дек 13:16

Часовой пояс: UTC + 3


Вы не можете начинать темы
Вы не можете отвечать на сообщения
Вы не можете редактировать свои сообщения
Вы не можете удалять свои сообщения
Вы не можете голосовать в опросах
Вы не можете прикреплять файлы к сообщениям
Вы не можете скачивать файлы