Мадам Бовари / Madame Bovary (Клод Шаброль / Claude Chabrol) [1991, Франция, драма, мелодрама, HDTV 1080i] DVO + Sub Eng + Original Fre


 

[Цитировать]

Мадам Бовари / Madame Bovary
Страна: Франция
Студия: MK2 Productions, CED Productions, FR3 Films Production, Canal+, Le Club des Investisseurs, Credit Lyonnais, Conseil Général de l'Eure, Conseil Régional de Haute Normandie
Жанр: драма, мелодрама
Год выпуска: 1991
Продолжительность: 02:16:25
Перевод: Профессиональный (двухголосый закадровый)
Cубтитры: английские
Оригинальная аудиодорожка: французский
Режиссер: Клод Шаброль / Claude Chabrol
В ролях: Изабель Юппер, Жан-Франсуа Бальмер, Кристоф Малавуа, Жан Янн, Люка Бельво, Кристиана Минаццоли, Жан-Луи Мори, Флоран Жибассье, Жан-Клод Буйо, Саблин Кампо ...
Описание: История Эммы Бовари — конфликт идеализированной, «книжной» (в понимании главной героини) жизни и суровой реальности. Не сумев смириться с отягощающей, скучной и бессмысленной судьбой, она ввязывается в череду опасных и дерзких поступков, которые приводят к трагическому финалу…
Фильм снят по мотивам романа Гюстава Флобера «Госпожа Бовари» (Madame Bovary, 1856). После публикации романа в журнале писатель был обвинен в оскорблении морали и привлечен к суду. Скандальная известность произведения сделала его популярным, а оправдательный приговор от 7 февраля 1857 года сделал возможной последовавшую в том же году публикацию романа отдельной книгой.
Доп. информация: Исходник Madame Bovary.1991.HDTV.1080.mkv найден в сети.-- --Madame Bovary (1991)_1080i HDTV_Sample_.mkv-
-

Награды


-
-Тип релиза: HDTV 1080i
Контейнер: MKV
Видео: H.264 / AVC Video / 7167 kbps / 1080i / 25.000 fps / 16:9 / High Profile 4.0
Аудио 1: Russian / Dolby Digital Audio / 2.0 / 48 kHz / 192 kbps
Аудио 2: French / Dolby Digital Audio / 2.0 / 48 kHz / 192 kbps
Формат субтитров: softsub (SRT)

MediaInfo

General
Unique ID : 218433552475791837512383079128728105738 (0xA454C59EFCB3682FB08E1B92B4D4730A)
Complete name : I:\111\z_D_Disk\Madame Bovary (1991)_1080i HDTV_.mkv
Format : Matroska
Format version : Version 4 / Version 2
File size : 7.34 GiB
Duration : 2h 16mn
Overall bit rate : 7 701 Kbps
Encoded date : UTC 2016-01-17 14:42:11
Writing application : mkvmerge v8.6.1 ('Flying') 64bit
Writing library : libebml v1.3.3 + libmatroska v1.4.4
Video
ID : 1
Format : AVC
Format/Info : Advanced Video Codec
Format profile : High@L4
Format settings, CABAC : Yes
Format settings, ReFrames : 4 frames
Codec ID : V_MPEG4/ISO/AVC
Duration : 2h 16mn
Bit rate : 7 164 Kbps
Width : 1 920 pixels
Height : 1 080 pixels
Display aspect ratio : 16:9
Frame rate mode : Constant
Frame rate : 25.000 fps
Color space : YUV
Chroma subsampling : 4:2:0
Bit depth : 8 bits
Scan type : MBAFF
Scan order : Top Field First
Bits/(Pixel*Frame) : 0.138
Stream size : 6.83 GiB (93%)
Title : Madame Bovary (1991)_1080i HDTV_
Language : French
Default : Yes
Forced : No
Color range : Limited
Color primaries : BT.709
Transfer characteristics : BT.709
Matrix coefficients : BT.709
Audio #1
ID : 2
Format : AC-3
Format/Info : Audio Coding 3
Mode extension : CM (complete main)
Format settings, Endianness : Big
Codec ID : A_AC3
Duration : 2h 16mn
Bit rate mode : Constant
Bit rate : 192 Kbps
Channel(s) : 2 channels
Channel positions : Front: L R
Sampling rate : 48.0 KHz
Compression mode : Lossy
Stream size : 187 MiB (2%)
Title : DVO
Language : Russian
Default : Yes
Forced : No
Audio #2
ID : 3
Format : AC-3
Format/Info : Audio Coding 3
Mode extension : CM (complete main)
Format settings, Endianness : Big
Codec ID : A_AC3
Duration : 2h 16mn
Bit rate mode : Constant
Bit rate : 192 Kbps
Channel(s) : 2 channels
Channel positions : Front: L R
Sampling rate : 48.0 KHz
Compression mode : Lossy
Stream size : 187 MiB (2%)
Language : French
Default : No
Forced : No
Text
ID : 4
Format : UTF-8
Codec ID : S_TEXT/UTF8
Codec ID/Info : UTF-8 Plain Text
Language : English
Default : No
Forced : No



Показать сообщения:    

Текущее время: 05-Дек 03:31

Часовой пояс: UTC + 3


Вы не можете начинать темы
Вы не можете отвечать на сообщения
Вы не можете редактировать свои сообщения
Вы не можете удалять свои сообщения
Вы не можете голосовать в опросах
Вы не можете прикреплять файлы к сообщениям
Вы не можете скачивать файлы