(Classical) Verdi - La Traviata - Sir John Pritchard - 2000, FLAC (image+.cue) lossless


 

[Цитировать]

Giuseppe Verdi - La Traviata - Sir John Pritchard
Жанр: Classical
Год издания диска: 2000
Издатель (лейбл): Aquarius
Дата записи: 1963
Аудиокодек: FLAC
Тип рипа: image+.cue
Битрейт аудио: lossless
Продолжительность: 66:59:55
Источник: собственный рип
Наличие сканов в содержимом раздачи: да
Треклист:
GIUSEPPE VERDI (1813-1901)
LA TRAVIATA
Highlights
Melodramma in tre atti
1. Preludio
Atto I
2. Libiamo ne'lieti calici / Alfredo
3. E strano!.. Ah, fors'e lui / Violetta
4. Follie! Delirio vano e questo!.. Sempre libera / Violetta
Atto II
Scena I
5. Lunge da lei De'miei bollenti spirtiti / Alfredo
6. Pura siccome un angelo / Germont
7. Dite alla giomine / Violetta
8. Dammi tu forza, o cielo! / Violetta
9. Di Provenza il mar / Germont
Scena II
10. Invitato a qui seguirmi / Violetta
11. Di sprezzo degno se stesso rende / Germont
Atto III
12. “Teneste la promessa”… Addio del passato / Violetta
13. Parigi, o cara / Alfredo
14. Ah Violetta! / Germont
Исполнители:
Libretto di Francesco Maria Piave
Violetta Valery - Joan Sutherland
Flora Bervoix - Miti Truccato Pace
Annina - Dora Carral
Alfredo Germont - Carlo Bergonzi
Giorgio Germont (his father) - Piero de Palma
Barone Douphol - Paolo Pedani
Marchese d'Obigny - Silvio Maionica
Dottore Grenvil - Giovanni Foiani
Signori e signore amici di Violetta e Flora
Friends of Violetta and Flora
Orchestra e coro del Maggio Musicale Fiorentiono
Sir John Pritchard

Лог создания рипа

Exact Audio Copy V1.0 beta 6 from 9. April 2015
Отчёт EAC об извлечении, выполненном 19. января 2016, 21:27
Giuseppe Verdi / La Traviata [Highlights]
Дисковод: TSSTcorpCDDVDW TS-L633C Adapter: 1 ID: 0
Режим чтения : ДостоверностьИспользование точного потока : ДаОтключение кэша аудио : ДаИспользование указателей C2 : Нет
Коррекция смещения при чтении : 6Способность читать области Lead-in и Lead-out : НетЗаполнение пропущенных сэмплов тишиной : ДаУдаление блоков с тишиной в начале и конце : НетПри вычислениях CRC использовались нулевые сэмплы : ДаИнтерфейс : Встроенный Win32-интерфейс для Win NT/2000
Выходной формат : Пользовательский кодировщикВыбранный битрейт : 768 kBit/sКачество : ВысокийДобавление ID3-тега : НетУтилита сжатия : C:\Program Files (x86)\Exact Audio Copy\FLAC\FLAC.EXEДополнительные параметры : -6 -V -T "ARTIST=%artist%" -T "TITLE=%title%" -T "ALBUM=%albumtitle%" -T "DATE=%year%" -T "TRACKNUMBER=%tracknr%" -T "GENRE=%genre%" -T "COMMENT=%comment%" -T "BAND=%albuminterpret%" -T "ALBUMARTIST=%albuminterpret%" -T "COMPOSER=%composer%" %haslyrics%--tag-from-file=LYRICS="%lyricsfile%"%haslyrics% -T "DISCNUMBER=%cdnumber%" -T "TOTALDISCS=%totalcds%" -T "TOTALTRACKS=%numtracks%" %hascover%--picture="%coverfile%"%hascover% %source% -o %dest%
TOC извлечённого CD
Трек | Старт | Длительность | Начальный сектор | Конечный сектор --------------------------------------------------------------------- 1 | 0:00.00 | 3:59.00 | 0 | 17924 2 | 3:59.00 | 3:03.32 | 17925 | 31681 3 | 7:02.32 | 7:02.73 | 31682 | 63404 4 | 14:05.30 | 4:58.32 | 63405 | 85786 5 | 19:03.62 | 3:52.43 | 85787 | 103229 6 | 22:56.30 | 7:16.37 | 103230 | 135966 7 | 30:12.67 | 4:32.28 | 135967 | 156394 8 | 34:45.20 | 4:16.15 | 156395 | 175609 9 | 39:01.35 | 4:13.67 | 175610 | 194651 10 | 43:15.27 | 4:07.43 | 194652 | 213219 11 | 47:22.70 | 6:27.35 | 213220 | 242279 12 | 53:50.30 | 8:22.45 | 242280 | 279974 13 | 62:13.00 | 4:46.55 | 279975 | 301479 14 | 66:59.55 | 6:13.20 | 301480 | 329474
Характеристики диапазона извлечения и сообщения об ошибках
Выбранный диапазон
Имя файла C:\музон\Giuseppe Verdi - La Traviata [Highlights].wav
Пиковый уровень 91.0 % Скорость извлечения 3.3 X Качество диапазона 99.9 % CRC теста 21307ACF CRC копии 21307ACF Копирование... OK
Ошибок не произошло
Конец отчёта
==== Контрольная сумма отчёта FFE141828C0FBD51673D7379F61E5522119E699CD0BDC64799095F70A623B1C0 ====

Содержание индексной карты (.CUE)

REM GENRE ClassicalREM DATE 1963REM DISCID BB11290EREM COMMENT "ExactAudioCopy v1.0b6"PERFORMER "Giuseppe Verdi"TITLE "La Traviata [Highlights]"FILE "Giuseppe Verdi - La Traviata [Highlights].flac" WAVE TRACK 01 AUDIO TITLE "Preludio" PERFORMER "John Pritchard & Various Artists" INDEX 01 00:00:00 TRACK 02 AUDIO TITLE "Atto 1 - Libiamo ne' lieti calici" PERFORMER "John Pritchard & Various Artists" INDEX 01 03:59:00 TRACK 03 AUDIO TITLE "Atto 1 - E strano! .... Ah, fors'e lui" PERFORMER "John Pritchard & Various Artists" INDEX 01 07:02:32 TRACK 04 AUDIO TITLE "Atto 1 - Follie! Delirio vano e questo! ... Sempre libera" PERFORMER "John Pritchard & Various Artists" INDEX 01 14:05:30 TRACK 05 AUDIO TITLE "Atto 2 - scena 1 - Lunge da lei ... De' miei bollenti spiriti" PERFORMER "John Pritchard & Various Artists" INDEX 01 19:03:62 TRACK 06 AUDIO TITLE "Atto 2 - scena 1 - Pura siccome un angelo" PERFORMER "John Pritchard & Various Artists" INDEX 01 22:56:30 TRACK 07 AUDIO TITLE "Atto 2 - scena 1 - Dite alla giovine" PERFORMER "John Pritchard & Various Artists" INDEX 01 30:12:67 TRACK 08 AUDIO TITLE "Atto 2 - scena 1 - Dammi tu forza, o cielo!" PERFORMER "John Pritchard & Various Artists" INDEX 01 34:45:20 TRACK 09 AUDIO TITLE "Atto 2 - scena 1 - Di provenza il mar" PERFORMER "John Pritchard & Various Artists" INDEX 01 39:01:35 TRACK 10 AUDIO TITLE "Atto 2 - scena 2 - Invitato a qui seguirmi" PERFORMER "John Pritchard & Various Artists" INDEX 01 43:15:27 TRACK 11 AUDIO TITLE "Atto 2 - scena 2 - Di sprezzo degno se stesso rende" PERFORMER "John Pritchard & Various Artists" INDEX 01 47:22:70 TRACK 12 AUDIO TITLE "Atto 3 - 'Teneste la promessa'... Addio del passato" PERFORMER "John Pritchard & Various Artists" INDEX 01 53:50:30 TRACK 13 AUDIO TITLE "Atto 3 - Parigi, o cara" PERFORMER "John Pritchard & Various Artists" INDEX 01 62:13:00 TRACK 14 AUDIO TITLE "Atto 3 - Ah Violetta" PERFORMER "John Pritchard & Various Artists" INDEX 01 66:59:55



Показать сообщения:    

Текущее время: 02-Дек 21:12

Часовой пояс: UTC + 3


Вы не можете начинать темы
Вы не можете отвечать на сообщения
Вы не можете редактировать свои сообщения
Вы не можете удалять свои сообщения
Вы не можете голосовать в опросах
Вы не можете прикреплять файлы к сообщениям
Вы не можете скачивать файлы