(Classical) Johann Sebastian Bach - 'Sei Solo': Sonatas & Partitas for Violin - Christine Busch - 2012, FLAC (image+.cue) lossless


 

[Цитировать]

Johann Sebastian Bach - 'Sei Solo': Sonatas & Partitas for Violin - Christine Busch
Жанр: Classical
Год издания диска: 2012
Издатель (лейбл): Phi
Номер по каталогу: LPH008
Дата записи: 2012
Аудиокодек: FLAC
Тип рипа: image+.cue
Битрейт аудио: lossless
Продолжительность: 145:48
Источник: собственный рип
Наличие сканов в содержимом раздачи: да
Треклист:
Johann Sebastian Bach (1685-1750)
‘Sei Solo’
Sonatas & Partitas for Violin - BWV 1001-1006

CD1
[1]-[4] Sonata No. 1 in G minor, BWV 1001
[5]-[12] Partita No. 1 in B minor, BWV 1002
[13]-[16] Sonata No. 2 in A minor, BWV 1003
CD2
[1]-[5] Partita No. 2 in D minor, BWV 1004
[6]-[9] Sonata No. 3 in C major, BWV 1005
[10]-[16] Partita No. 3 in E major, BWV 1006
Исполнители:
Christine Busch baroque violin

Лог создания рипа: CD1

Exact Audio Copy V1.1 from 23. June 2015
EAC extraction logfile from 13. January 2016, 21:28
Christine Busch / Bach - Sonatas and Partitas for Violin - CD1
Used drive : HL-DT-STDVDRAM GU70N Adapter: 1 ID: 0
Read mode : SecureUtilize accurate stream : YesDefeat audio cache : YesMake use of C2 pointers : No
Read offset correction : 48Overread into Lead-In and Lead-Out : NoFill up missing offset samples with silence : YesDelete leading and trailing silent blocks : NoNull samples used in CRC calculations : YesUsed interface : Native Win32 interface for Win NT & 2000
Used output format : User Defined EncoderSelected bitrate : 128 kBit/sQuality : HighAdd ID3 tag : NoCommand line compressor : C:\Program Files (x86)\Exact Audio Copy\Flac\flac.exeAdditional command line options : -V -8 -T "Date=%year%" -T "Genre=%genre%" %source%
TOC of the extracted CD
Track | Start | Length | Start sector | End sector --------------------------------------------------------- 1 | 0:00.00 | 3:58.41 | 0 | 17890 2 | 3:58.41 | 5:34.60 | 17891 | 43000 3 | 9:33.26 | 2:57.20 | 43001 | 56295 4 | 12:30.46 | 3:56.44 | 56296 | 74039 5 | 16:27.15 | 6:01.25 | 74040 | 101139 6 | 22:28.40 | 3:25.14 | 101140 | 116528 7 | 25:53.54 | 3:59.48 | 116529 | 134501 8 | 29:53.27 | 4:22.29 | 134502 | 154180 9 | 34:15.56 | 4:07.20 | 154181 | 172725 10 | 38:23.01 | 2:49.73 | 172726 | 185473 11 | 41:12.74 | 3:39.31 | 185474 | 201929 12 | 44:52.30 | 3:52.46 | 201930 | 219375 13 | 48:45.01 | 4:07.08 | 219376 | 237908 14 | 52:52.09 | 8:27.32 | 237909 | 275965 15 | 61:19.41 | 5:11.70 | 275966 | 299360 16 | 66:31.36 | 6:06.39 | 299361 | 326849
Range status and errors
Selected range
Filename C:\temp\Bach - Sonatas and Partitas for Violin - Christine Busch\CD1\Bach - Sonatas and Partitas for Violin - CD1.wav
Peak level 100.0 % Extraction speed 2.3 X Range quality 100.0 % Test CRC 3212C262 Copy CRC 3212C262 Copy OK
No errors occurred
AccurateRip summary
Track 1 accurately ripped (confidence 7) [A6AA5E53] (AR v2)Track 2 accurately ripped (confidence 7) [5FD8A1D8] (AR v2)Track 3 accurately ripped (confidence 7) [694D4F89] (AR v2)Track 4 accurately ripped (confidence 7) [9D8D2866] (AR v2)Track 5 accurately ripped (confidence 7) [B0246BC4] (AR v2)Track 6 accurately ripped (confidence 7) [F2AF8594] (AR v2)Track 7 accurately ripped (confidence 7) [6D8F394F] (AR v2)Track 8 accurately ripped (confidence 7) [1CE5293A] (AR v2)Track 9 accurately ripped (confidence 7) [8264DC61] (AR v2)Track 10 accurately ripped (confidence 7) [40AC6F19] (AR v2)Track 11 accurately ripped (confidence 7) [9954D346] (AR v2)Track 12 accurately ripped (confidence 7) [6179310E] (AR v2)Track 13 accurately ripped (confidence 7) [F67E8AC7] (AR v2)Track 14 accurately ripped (confidence 7) [4BE66424] (AR v2)Track 15 accurately ripped (confidence 7) [6D60198F] (AR v2)Track 16 accurately ripped (confidence 7) [842C7EFE] (AR v2)
All tracks accurately ripped
End of status report
==== Log checksum EAC90AE1D3A5A7311006A2B74220C0E6B8DC102AC0F3EEA32DDF04F5D4F89FC5 ====

Лог создания рипа: CD2

Exact Audio Copy V1.1 from 23. June 2015
EAC extraction logfile from 14. January 2016, 1:11
Christine Busch / Bach - Sonatas and Partitas for Violin - CD2
Used drive : HL-DT-STDVDRAM GU70N Adapter: 1 ID: 0
Read mode : SecureUtilize accurate stream : YesDefeat audio cache : YesMake use of C2 pointers : No
Read offset correction : 48Overread into Lead-In and Lead-Out : NoFill up missing offset samples with silence : YesDelete leading and trailing silent blocks : NoNull samples used in CRC calculations : YesUsed interface : Native Win32 interface for Win NT & 2000
Used output format : User Defined EncoderSelected bitrate : 128 kBit/sQuality : HighAdd ID3 tag : NoCommand line compressor : C:\Program Files (x86)\Exact Audio Copy\Flac\flac.exeAdditional command line options : -V -8 -T "Date=%year%" -T "Genre=%genre%" %source%
TOC of the extracted CD
Track | Start | Length | Start sector | End sector --------------------------------------------------------- 1 | 0:00.00 | 4:42.51 | 0 | 21200 2 | 4:42.51 | 2:39.31 | 21201 | 33156 3 | 7:22.07 | 4:18.31 | 33157 | 52537 4 | 11:40.38 | 4:22.63 | 52538 | 72250 5 | 16:03.26 | 15:03.40 | 72251 | 140015 6 | 31:06.66 | 4:17.47 | 140016 | 159337 7 | 35:24.38 | 11:10.16 | 159338 | 209603 8 | 46:34.54 | 3:11.19 | 209604 | 223947 9 | 49:45.73 | 5:18.35 | 223948 | 247832 10 | 55:04.33 | 4:13.26 | 247833 | 266833 11 | 59:17.59 | 3:45.74 | 266834 | 283782 12 | 63:03.58 | 3:04.28 | 283783 | 297610 13 | 66:08.11 | 1:38.69 | 297611 | 305029 14 | 67:47.05 | 1:49.01 | 305030 | 313205 15 | 69:36.06 | 1:36.22 | 313206 | 320427 16 | 71:12.28 | 1:54.00 | 320428 | 328977
Range status and errors
Selected range
Filename C:\temp\Bach - Sonatas and Partitas for Violin - Christine Busch\CD2\Bach - Sonatas and Partitas for Violin - CD2.wav
Peak level 100.0 % Extraction speed 2.3 X Range quality 99.9 % Test CRC B847298D Copy CRC B847298D Copy OK
No errors occurred
AccurateRip summary
Track 1 accurately ripped (confidence 7) [7E491DD1] (AR v2)Track 2 accurately ripped (confidence 7) [AE33F38E] (AR v2)Track 3 accurately ripped (confidence 7) [7EDCE296] (AR v2)Track 4 accurately ripped (confidence 7) [4F258C2B] (AR v2)Track 5 accurately ripped (confidence 7) [84AD6405] (AR v2)Track 6 accurately ripped (confidence 7) [8BAB3968] (AR v2)Track 7 accurately ripped (confidence 7) [8A6DBEEF] (AR v2)Track 8 accurately ripped (confidence 7) [9773CB56] (AR v2)Track 9 accurately ripped (confidence 7) [B3864081] (AR v2)Track 10 accurately ripped (confidence 7) [E028F47B] (AR v2)Track 11 accurately ripped (confidence 7) [CE82360C] (AR v2)Track 12 accurately ripped (confidence 7) [12BE959F] (AR v2)Track 13 accurately ripped (confidence 6) [1FE2F4DE] (AR v2)Track 14 accurately ripped (confidence 7) [F67DB848] (AR v2)Track 15 accurately ripped (confidence 7) [2229D927] (AR v2)Track 16 accurately ripped (confidence 7) [9CEA8EC4] (AR v2)
All tracks accurately ripped
End of status report
==== Log checksum A58CDD3D44CD3E7830543C9414808DBFC24D6D57C018B3449A2FC5AC33FC0402 ====



Показать сообщения:    

Текущее время: 04-Дек 21:23

Часовой пояс: UTC + 3


Вы не можете начинать темы
Вы не можете отвечать на сообщения
Вы не можете редактировать свои сообщения
Вы не можете удалять свои сообщения
Вы не можете голосовать в опросах
Вы не можете прикреплять файлы к сообщениям
Вы не можете скачивать файлы