(Classical/Piano) Schubert - Piano Duets (Fantasy F minor Op.103 D.940, Allegro A minor Op.post.144 D.947, Rondo A major Op.107 D.951, Two Marches Op.post.121 D.886 (968B)) - Imre Rohmann, Andras Schiff - 1977/1994, FLAC (tracks+.cue) lossless


 

[Цитировать]

Franz Schubert - Piano Duets - Imre Rohmann, András Schiff
Жанр: Classical/Piano
Страна-производитель диска: Венгрия
Год издания диска: 1994
Издатель (лейбл): Hungaroton
Номер по каталогу: HCD 11941
Дата записи: 1977
Аудиокодек: FLAC
Тип рипа: tracks+.cue
Битрейт аудио: lossless
Продолжительность: 56'17
Источник: avaxhome
Наличие сканов в содержимом раздачи: да
Треклист:
Franz Schubert (1797-1828)
1. Fantasy in F minor, Op.103 D. 940 [18'12]
2. Allegro in A minor, Op.post.144 D. 947 "Lebensstürme" [11'07]
3. Rondo in A major, Op.107 D. 951 "Grand Rondeau" [12'08]
Two "Marches caractéristiques", Op.post.121 D. 886 (968B)
4. Allegro vivace in C major No. 1 [7'00]
5. Allegro vivace in C major No. 2 [7'27]
Исполнители:
Imre Rohmann - piano
András Schiff - piano

Лог создания рипа

Exact Audio Copy V1.1 from 23. June 2015
EAC extraction logfile from 6. January 2016, 18:49
Schubert / Piano Duets - Imre Rohmann & Andras Schiff
Used drive : PLEXTOR CD-R PREMIUM2 Adapter: 5 ID: 1
Read mode : SecureUtilize accurate stream : YesDefeat audio cache : YesMake use of C2 pointers : No
Read offset correction : 30Overread into Lead-In and Lead-Out : YesFill up missing offset samples with silence : YesDelete leading and trailing silent blocks : NoNull samples used in CRC calculations : YesUsed interface : Installed external ASPI interfaceGap handling : Appended to previous track
Used output format : User Defined EncoderSelected bitrate : 896 kBit/sQuality : HighAdd ID3 tag : NoCommand line compressor : C:\Program Files\Exact Audio Copy\Flac\flac.exeAdditional command line options : -6 -V -T "ARTIST=%artist%" -T "TITLE=%title%" -T "ALBUM=%albumtitle%" -T "DATE=%year%" -T "PERFORMER=%albuminterpret%" -T "TRACKNUMBER=%tracknr%" -T "TOTALTRACKS=%numtracks%" -T "GENRE=%genre%" -T "COMPOSER=%composer%" -T "ALBUMARTIST=%albumartist%" -T "ALBUM ARTIST=%albumartist%" -T "COMMENT=EAC Secure Mode, Test & Copy, AccurateRip, FLAC -6" %source%
TOC of the extracted CD
Track | Start | Length | Start sector | End sector --------------------------------------------------------- 1 | 0:00.00 | 18:16.12 | 0 | 82211 2 | 18:16.12 | 11:13.68 | 82212 | 132754 3 | 29:30.05 | 12:16.20 | 132755 | 187974 4 | 41:46.25 | 7:03.25 | 187975 | 219724 5 | 48:49.50 | 7:28.07 | 219725 | 253331
Track 1
Filename D:\EAC extraction\01 - Fantasy in F minor, D.940.wav
Pre-gap length 0:00:02.00
Peak level 89.1 % Extraction speed 1.9 X Track quality 100.0 % Test CRC FF040F28 Copy CRC FF040F28 Accurately ripped (confidence 1) [877AAADA] (AR v2) Copy OK
Track 2
Filename D:\EAC extraction\02 - Lebensstuerme in A minor, D.947.wav
Pre-gap length 0:00:03.00
Peak level 85.9 % Extraction speed 1.9 X Track quality 100.0 % Test CRC 65DC47BB Copy CRC 65DC47BB Accurately ripped (confidence 1) [092592C1] (AR v2) Copy OK
Track 3
Filename D:\EAC extraction\03 - Grand Rondeau in A major, D.951.wav
Pre-gap length 0:00:04.48
Peak level 68.3 % Extraction speed 1.9 X Track quality 100.0 % Test CRC F91F661C Copy CRC F91F661C Accurately ripped (confidence 1) [42BEC43A] (AR v2) Copy OK
Track 4
Filename D:\EAC extraction\04 - 2 Marches Caracteristiques in C major, D.886 - No.1.wav
Pre-gap length 0:00:05.48
Peak level 66.6 % Extraction speed 1.8 X Track quality 100.0 % Test CRC 4B4F0F09 Copy CRC 4B4F0F09 Accurately ripped (confidence 1) [F5B7308D] (AR v2) Copy OK
Track 5
Filename D:\EAC extraction\05 - 2 Marches Caracteristiques in C major, D.886 - No.2.wav
Pre-gap length 0:00:01.73
Peak level 78.0 % Extraction speed 1.9 X Track quality 100.0 % Test CRC CE663DA1 Copy CRC CE663DA1 Accurately ripped (confidence 1) [D7CC1BAB] (AR v2) Copy OK
All tracks accurately ripped
No errors occurred
End of status report
==== Log checksum C827A4ECABAF1B9280BA211A8B0664E4879CE89CA74303B630229D3AE2A9CC9F ====

Содержание индексной карты (.CUE)

REM GENRE ClassicalREM DATE 1977REM DISCID 430D3105REM COMMENT "ExactAudioCopy v1.1"PERFORMER "Schubert"TITLE "Piano Duets - Imre Rohmann & András Schiff"FILE "01 - Fantasy in F minor, D.940.wav" WAVE TRACK 01 AUDIO TITLE "Fantasy in F minor, D.940" PERFORMER "Schubert" INDEX 01 00:00:00 TRACK 02 AUDIO TITLE "Lebensstürme in A minor, D.947" PERFORMER "Schubert" INDEX 00 18:13:12FILE "02 - Lebensstuerme in A minor, D.947.wav" WAVE INDEX 01 00:00:00 TRACK 03 AUDIO TITLE "Grand Rondeau in A major, D.951" PERFORMER "Schubert" INDEX 00 11:09:20FILE "03 - Grand Rondeau in A major, D.951.wav" WAVE INDEX 01 00:00:00 TRACK 04 AUDIO TITLE "2 Marches Caractéristiques in C major, D.886 - No.1" PERFORMER "Schubert" INDEX 00 12:10:47FILE "04 - 2 Marches Caracteristiques in C major, D.886 - No.1.wav" WAVE INDEX 01 00:00:00 TRACK 05 AUDIO TITLE "2 Marches Caractéristiques in C major, D.886 - No.2" PERFORMER "Schubert" INDEX 00 07:01:27FILE "05 - 2 Marches Caracteristiques in C major, D.886 - No.2.wav" WAVE INDEX 01 00:00:00
Внимание!
Торрент перезалит 19.01.2016
Заменен правильным рипом.



Показать сообщения:    

Текущее время: 06-Дек 22:56

Часовой пояс: UTC + 3


Вы не можете начинать темы
Вы не можете отвечать на сообщения
Вы не можете редактировать свои сообщения
Вы не можете удалять свои сообщения
Вы не можете голосовать в опросах
Вы не можете прикреплять файлы к сообщениям
Вы не можете скачивать файлы