(Soundtrack) Губка Боб Квадратные Штаны / SpongeBob SquarePants - The Yellow Album (Stephen Hillenburg) - 2005, FLAC (tracks+.cue), lossless


Статистика раздачи [Обновить пиров]
Размер:  197 MB   |    Зарегистрирован:  10 месяцев 18 дней   |    Скачан:  2 раза

Полного источника не было: 5 дней

Личеров:  3  [  0 KB/s  ]   Подробная статистика пиров
 
   
 
 
 

[Цитировать]

Губка Боб Квадратные Штаны / SpongeBob SquarePants - The Yellow Album
Название альбома: The Yellow Album
Жанр: Soundtrack
Композитор: Stephen Hillenburg
Год выпуска диска: 2005
Год выпуска фильма: 1999-2005
Страна-производитель диска: USA
Издатель (лейбл): Nick Records
Номер по каталогу: 82876739742
Аудиокодек: FLAC (*.flac)
Тип рипа: tracks+.cue
Битрейт аудио: lossless
Продолжительность: 31:16
Источник: what.cd
Треклист:
1. SpongeBob SquarePants Theme Song - 0:46
2. Sweet Victory - 2:08
3. Ripped Pants - 1:18
4. Doing the Sponge - 1:33
5. He's Flying - 1:34
6. Gary's Song (Gary Come Home) - 2:27
7. Sweater Song - 0:32
8. Hey All You People - 0:44
9. Bubble Beat Box - 1:03
10. Underwater Sun - 1:32
11. Bossy Boots Song - 1:32
12. When Worlds Collide - 1:16
13. Jellyfish Jam - 1:43
14. Campfire Song Song - 0:57
15. Hey, Mean Mr. Bossman - 0:42
16. Stadium Rave - 1:09
17. All You Need Is Friendship - 0:51
18. Nick B Danube - 0:36
19. That's What Friends Do - 0:33
20. You're Old - 2:22
21. Electric Zoo - 0:37
22. Jingle Bells - 2:54
23. B.C. Strut - 1:09

Лог создания рипа

Exact Audio Copy V0.99 prebeta 5 from 4. May 2009
EAC extraction logfile from 24. November 2010, 0:03
Spongebob Squarepants / The Yellow Album
Used drive : HP DVD Writer 640b Adapter: 0 ID: 0
Read mode : SecureUtilize accurate stream : YesDefeat audio cache : YesMake use of C2 pointers : No
Read offset correction : 102Overread into Lead-In and Lead-Out : YesFill up missing offset samples with silence : YesDelete leading and trailing silent blocks : NoNull samples used in CRC calculations : YesUsed interface : Installed external ASPI interfaceGap handling : Appended to previous track
Used output format : User Defined EncoderSelected bitrate : 768 kBit/sQuality : HighAdd ID3 tag : NoCommand line compressor : C:\Program Files\Exact Audio Copy\Flac\flac.exeAdditional command line options : -V -8 -T "artist=%a" -T "title=%t" -T "album=%g" -T "date=%y" -T "tracknumber=%n" -T "genre=%m" %s
TOC of the extracted CD
Track | Start | Length | Start sector | End sector --------------------------------------------------------- 1 | 0:00.00 | 0:46.36 | 0 | 3485 2 | 0:46.36 | 2:08.19 | 3486 | 13104 3 | 2:54.55 | 1:18.31 | 13105 | 18985 4 | 4:13.11 | 1:33.23 | 18986 | 25983 5 | 5:46.34 | 1:34.45 | 25984 | 33078 6 | 7:21.04 | 2:27.21 | 33079 | 44124 7 | 9:48.25 | 0:32.68 | 44125 | 46592 8 | 10:21.18 | 0:44.23 | 46593 | 49915 9 | 11:05.41 | 1:03.61 | 49916 | 54701 10 | 12:09.27 | 1:32.25 | 54702 | 61626 11 | 13:41.52 | 1:32.02 | 61627 | 68528 12 | 15:13.54 | 1:16.51 | 68529 | 74279 13 | 16:30.30 | 1:43.65 | 74280 | 82069 14 | 18:14.20 | 0:57.48 | 82070 | 86392 15 | 19:11.68 | 0:42.13 | 86393 | 89555 16 | 19:54.06 | 1:09.41 | 89556 | 94771 17 | 21:03.47 | 0:51.65 | 94772 | 98661 18 | 21:55.37 | 0:36.07 | 98662 | 101368 19 | 22:31.44 | 0:34.37 | 101369 | 103955 20 | 23:06.06 | 2:22.31 | 103956 | 114636 21 | 25:28.37 | 0:37.15 | 114637 | 117426 22 | 26:05.52 | 2:56.06 | 117427 | 130632 23 | 29:01.58 | 1:09.55 | 130633 | 135862 24 | 32:43.38 | 3:12.60 | 147263 | 161722
Track 1
Filename C:\EACrips\Spongebob Squarepants - 2005 - The Yellow Album [FLAC]\01 - Spongebob Squarepants Theme Song.wav
Pre-gap length 0:00:02.00
Peak level 94.1 % Track quality 99.7 % Test CRC 48131399 Copy CRC 48131399 Cannot be verified as accurate (confidence 4) [EC4E29C0], AccurateRip returned [79D4DBA4] Copy OK
Track 2
Filename C:\EACrips\Spongebob Squarepants - 2005 - The Yellow Album [FLAC]\02 - Sweet Victory.wav
Pre-gap length 0:00:01.65
Peak level 96.6 % Track quality 100.0 % Test CRC 58039430 Copy CRC 58039430 Cannot be verified as accurate (confidence 4) [0D1B9995], AccurateRip returned [42D545A6] Copy OK
Track 3
Filename C:\EACrips\Spongebob Squarepants - 2005 - The Yellow Album [FLAC]\03 - Ripped Pants.wav
Pre-gap length 0:00:01.62
Peak level 96.6 % Track quality 100.0 % Test CRC 053B0417 Copy CRC 053B0417 Cannot be verified as accurate (confidence 4) [5D74DCA5], AccurateRip returned [139CFADD] Copy OK
Track 4
Filename C:\EACrips\Spongebob Squarepants - 2005 - The Yellow Album [FLAC]\04 - Doing the Sponge.wav
Pre-gap length 0:00:01.64
Peak level 96.6 % Track quality 99.8 % Test CRC 9C3B1768 Copy CRC 9C3B1768 Cannot be verified as accurate (confidence 4) [0ABC704E], AccurateRip returned [16237A63] Copy OK
Track 5
Filename C:\EACrips\Spongebob Squarepants - 2005 - The Yellow Album [FLAC]\05 - He's Flying.wav
Pre-gap length 0:00:01.62
Peak level 96.6 % Track quality 100.0 % Test CRC 6A67B099 Copy CRC 6A67B099 Cannot be verified as accurate (confidence 4) [59F33F4E], AccurateRip returned [FCB8B99D] Copy OK
Track 6
Filename C:\EACrips\Spongebob Squarepants - 2005 - The Yellow Album [FLAC]\06 - Gary's Song.wav
Pre-gap length 0:00:01.62
Peak level 96.6 % Track quality 100.0 % Test CRC 70552E3E Copy CRC 70552E3E Cannot be verified as accurate (confidence 4) [C8F4CA5D], AccurateRip returned [3FE83C2A] Copy OK
Track 7
Filename C:\EACrips\Spongebob Squarepants - 2005 - The Yellow Album [FLAC]\07 - Sweater Song.wav
Pre-gap length 0:00:01.62
Peak level 96.6 % Track quality 100.0 % Test CRC 5A97AD9A Copy CRC 5A97AD9A Cannot be verified as accurate (confidence 4) [854E812B], AccurateRip returned [D13AD329] Copy OK
Track 8
Filename C:\EACrips\Spongebob Squarepants - 2005 - The Yellow Album [FLAC]\08 - Hey All You People.wav
Pre-gap length 0:00:01.62
Peak level 96.6 % Track quality 100.0 % Test CRC A1A2F262 Copy CRC A1A2F262 Cannot be verified as accurate (confidence 4) [01578C87], AccurateRip returned [C5A8C58D] Copy OK
Track 9
Filename C:\EACrips\Spongebob Squarepants - 2005 - The Yellow Album [FLAC]\09 - Bubble Beat Box.wav
Pre-gap length 0:00:01.62
Peak level 96.6 % Track quality 100.0 % Test CRC C5F54ADC Copy CRC C5F54ADC Cannot be verified as accurate (confidence 4) [8F5F3892], AccurateRip returned [C056147B] Copy OK
Track 10
Filename C:\EACrips\Spongebob Squarepants - 2005 - The Yellow Album [FLAC]\10 - Underwater Sun.wav
Pre-gap length 0:00:01.62
Peak level 96.6 % Track quality 100.0 % Test CRC A4ED0A8B Copy CRC A4ED0A8B Cannot be verified as accurate (confidence 4) [8BC403D8], AccurateRip returned [B756CF0D] Copy OK
Track 11
Filename C:\EACrips\Spongebob Squarepants - 2005 - The Yellow Album [FLAC]\11 - Bossy Boots Song.wav
Peak level 96.6 % Track quality 100.0 % Test CRC 40E229B8 Copy CRC 40E229B8 Cannot be verified as accurate (confidence 4) [BA7CFEE0], AccurateRip returned [F5708D46] Copy OK
Track 12
Filename C:\EACrips\Spongebob Squarepants - 2005 - The Yellow Album [FLAC]\12 - When Worlds Collide.wav
Pre-gap length 0:00:01.68
Peak level 96.6 % Track quality 100.0 % Test CRC D509E908 Copy CRC D509E908 Cannot be verified as accurate (confidence 4) [E6CC85B7], AccurateRip returned [4227EE96] Copy OK
Track 13
Filename C:\EACrips\Spongebob Squarepants - 2005 - The Yellow Album [FLAC]\13 - Jelly Fish Jam.wav
Pre-gap length 0:00:01.64
Peak level 96.6 % Track quality 100.0 % Test CRC 6EC62F94 Copy CRC 6EC62F94 Cannot be verified as accurate (confidence 4) [4ADB6B31], AccurateRip returned [C39517DE] Copy OK
Track 14
Filename C:\EACrips\Spongebob Squarepants - 2005 - The Yellow Album [FLAC]\14 - Campfire Song Song.wav
Pre-gap length 0:00:01.62
Peak level 96.6 % Track quality 100.0 % Test CRC 36A17B11 Copy CRC 36A17B11 Cannot be verified as accurate (confidence 4) [96926049], AccurateRip returned [A4ABA000] Copy OK
Track 15
Filename C:\EACrips\Spongebob Squarepants - 2005 - The Yellow Album [FLAC]\15 - Hey Mean Mr. Bossman.wav
Pre-gap length 0:00:01.62
Peak level 96.6 % Track quality 99.7 % Test CRC B85017EF Copy CRC B85017EF Cannot be verified as accurate (confidence 4) [632E8019], AccurateRip returned [BB083E3E] Copy OK
Track 16
Filename C:\EACrips\Spongebob Squarepants - 2005 - The Yellow Album [FLAC]\16 - Stadium Rave.wav
Peak level 96.6 % Track quality 100.0 % Test CRC 8FAF6C81 Copy CRC 8FAF6C81 Cannot be verified as accurate (confidence 4) [58CA6DDE], AccurateRip returned [5F7E06B3] Copy OK
Track 17
Filename C:\EACrips\Spongebob Squarepants - 2005 - The Yellow Album [FLAC]\17 - All You Need Is Friends.wav
Peak level 96.6 % Track quality 100.0 % Test CRC E2A05AF1 Copy CRC E2A05AF1 Cannot be verified as accurate (confidence 4) [458DAE85], AccurateRip returned [57D155CE] Copy OK
Track 18
Filename C:\EACrips\Spongebob Squarepants - 2005 - The Yellow Album [FLAC]\18 - Nick's B. Danube.wav
Peak level 96.6 % Track quality 100.0 % Test CRC EF1B29F8 Copy CRC EF1B29F8 Cannot be verified as accurate (confidence 4) [C71DE547], AccurateRip returned [AA153366] Copy OK
Track 19
Filename C:\EACrips\Spongebob Squarepants - 2005 - The Yellow Album [FLAC]\19 - That's What Friends Do.wav
Peak level 96.6 % Track quality 100.0 % Test CRC 209DB56E Copy CRC 209DB56E Cannot be verified as accurate (confidence 4) [015A9324], AccurateRip returned [E133C7F6] Copy OK
Track 20
Filename C:\EACrips\Spongebob Squarepants - 2005 - The Yellow Album [FLAC]\20 - You're Old.wav
Peak level 96.6 % Track quality 100.0 % Test CRC 840A249E Copy CRC 840A249E Cannot be verified as accurate (confidence 4) [C91D5B2B], AccurateRip returned [4A6EC751] Copy OK
Track 21
Filename C:\EACrips\Spongebob Squarepants - 2005 - The Yellow Album [FLAC]\21 - Electric Zoo.wav
Peak level 96.6 % Track quality 99.7 % Test CRC B558E4DC Copy CRC B558E4DC Cannot be verified as accurate (confidence 4) [D9A7EC86], AccurateRip returned [BD1B16DE] Copy OK
Track 22
Filename C:\EACrips\Spongebob Squarepants - 2005 - The Yellow Album [FLAC]\22 - Jingle Bells.wav
Peak level 96.6 % Track quality 100.0 % Test CRC EAA39845 Copy CRC EAA39845 Cannot be verified as accurate (confidence 4) [C3D52750], AccurateRip returned [3BB299D0] Copy OK
Track 23
Filename C:\EACrips\Spongebob Squarepants - 2005 - The Yellow Album [FLAC]\23 - B.C. Strut.wav
Peak level 96.6 % Track quality 99.8 % Test CRC 38115E52 Copy CRC 38115E52 Cannot be verified as accurate (confidence 4) [C03D6F82], AccurateRip returned [11DD1AC0] Copy OK
No tracks could be verified as accurateYou may have a different pressing from the one(s) in the database
No errors occurred
End of status report

Содержание индексной карты (.CUE)

REM GENRE HumourREM DATE 2005REM DISCID 4F086C18REM COMMENT "ExactAudioCopy v0.99pb5"PERFORMER "Spongebob Squarepants"TITLE "The Yellow Album"FILE "Spongebob Squarepants - 2005 - The Yellow Album [FLAC]\01 - Spongebob Squarepants Theme Song.wav" WAVE TRACK 01 AUDIO TITLE "Spongebob Squarepants Theme Song" PERFORMER "Spongebob Squarepants" FLAGS DCP INDEX 01 00:00:00 TRACK 02 AUDIO TITLE "Sweet Victory" PERFORMER "Spongebob Squarepants" FLAGS DCP INDEX 00 00:44:62FILE "Spongebob Squarepants - 2005 - The Yellow Album [FLAC]\02 - Sweet Victory.wav" WAVE INDEX 01 00:00:00 TRACK 03 AUDIO TITLE "Ripped Pants" PERFORMER "Spongebob Squarepants" FLAGS DCP INDEX 00 02:06:47FILE "Spongebob Squarepants - 2005 - The Yellow Album [FLAC]\03 - Ripped Pants.wav" WAVE INDEX 01 00:00:00 TRACK 04 AUDIO TITLE "Doing the Sponge" PERFORMER "Spongebob Squarepants" FLAGS DCP INDEX 00 01:16:58FILE "Spongebob Squarepants - 2005 - The Yellow Album [FLAC]\04 - Doing the Sponge.wav" WAVE INDEX 01 00:00:00 TRACK 05 AUDIO TITLE "He's Flying" PERFORMER "Spongebob Squarepants" FLAGS DCP INDEX 00 01:31:51FILE "Spongebob Squarepants - 2005 - The Yellow Album [FLAC]\05 - He's Flying.wav" WAVE INDEX 01 00:00:00 TRACK 06 AUDIO TITLE "Gary's Song" PERFORMER "Spongebob Squarepants" FLAGS DCP INDEX 00 01:32:73FILE "Spongebob Squarepants - 2005 - The Yellow Album [FLAC]\06 - Gary's Song.wav" WAVE INDEX 01 00:00:00 TRACK 07 AUDIO TITLE "Sweater Song" PERFORMER "Spongebob Squarepants" FLAGS DCP INDEX 00 02:25:49FILE "Spongebob Squarepants - 2005 - The Yellow Album [FLAC]\07 - Sweater Song.wav" WAVE INDEX 01 00:00:00 TRACK 08 AUDIO TITLE "Hey All You People" PERFORMER "Spongebob Squarepants" FLAGS DCP INDEX 00 00:31:21FILE "Spongebob Squarepants - 2005 - The Yellow Album [FLAC]\08 - Hey All You People.wav" WAVE INDEX 01 00:00:00 TRACK 09 AUDIO TITLE "Bubble Beat Box" PERFORMER "Spongebob Squarepants" FLAGS DCP INDEX 00 00:42:51FILE "Spongebob Squarepants - 2005 - The Yellow Album [FLAC]\09 - Bubble Beat Box.wav" WAVE INDEX 01 00:00:00 TRACK 10 AUDIO TITLE "Underwater Sun" PERFORMER "Spongebob Squarepants" FLAGS DCP INDEX 00 01:02:14FILE "Spongebob Squarepants - 2005 - The Yellow Album [FLAC]\10 - Underwater Sun.wav" WAVE INDEX 01 00:00:00FILE "Spongebob Squarepants - 2005 - The Yellow Album [FLAC]\11 - Bossy Boots Song.wav" WAVE TRACK 11 AUDIO TITLE "Bossy Boots Song" PERFORMER "Spongebob Squarepants" FLAGS DCP INDEX 01 00:00:00 TRACK 12 AUDIO TITLE "When Worlds Collide" PERFORMER "Spongebob Squarepants" FLAGS DCP INDEX 00 01:30:26FILE "Spongebob Squarepants - 2005 - The Yellow Album [FLAC]\12 - When Worlds Collide.wav" WAVE INDEX 01 00:00:00 TRACK 13 AUDIO TITLE "Jelly Fish Jam" PERFORMER "Spongebob Squarepants" FLAGS DCP INDEX 00 01:15:03FILE "Spongebob Squarepants - 2005 - The Yellow Album [FLAC]\13 - Jelly Fish Jam.wav" WAVE INDEX 01 00:00:00 TRACK 14 AUDIO TITLE "Campfire Song Song" PERFORMER "Spongebob Squarepants" FLAGS DCP INDEX 00 01:42:18FILE "Spongebob Squarepants - 2005 - The Yellow Album [FLAC]\14 - Campfire Song Song.wav" WAVE INDEX 01 00:00:00 TRACK 15 AUDIO TITLE "Hey Mean Mr. Bossman" PERFORMER "Spongebob Squarepants" FLAGS DCP INDEX 00 00:56:01FILE "Spongebob Squarepants - 2005 - The Yellow Album [FLAC]\15 - Hey Mean Mr. Bossman.wav" WAVE INDEX 01 00:00:00FILE "Spongebob Squarepants - 2005 - The Yellow Album [FLAC]\16 - Stadium Rave.wav" WAVE TRACK 16 AUDIO TITLE "Stadium Rave" PERFORMER "Spongebob Squarepants" FLAGS DCP INDEX 01 00:00:00FILE "Spongebob Squarepants - 2005 - The Yellow Album [FLAC]\17 - All You Need Is Friends.wav" WAVE TRACK 17 AUDIO TITLE "All You Need Is Friends" PERFORMER "Spongebob Squarepants" FLAGS DCP INDEX 01 00:00:00FILE "Spongebob Squarepants - 2005 - The Yellow Album [FLAC]\18 - Nick's B. Danube.wav" WAVE TRACK 18 AUDIO TITLE "Nick's B. Danube" PERFORMER "Spongebob Squarepants" FLAGS DCP INDEX 01 00:00:00FILE "Spongebob Squarepants - 2005 - The Yellow Album [FLAC]\19 - That's What Friends Do.wav" WAVE TRACK 19 AUDIO TITLE "That's What Friends Do" PERFORMER "Spongebob Squarepants" FLAGS DCP INDEX 01 00:00:00FILE "Spongebob Squarepants - 2005 - The Yellow Album [FLAC]\20 - You're Old.wav" WAVE TRACK 20 AUDIO TITLE "You're Old" PERFORMER "Spongebob Squarepants" FLAGS DCP INDEX 01 00:00:00FILE "Spongebob Squarepants - 2005 - The Yellow Album [FLAC]\21 - Electric Zoo.wav" WAVE TRACK 21 AUDIO TITLE "Electric Zoo" PERFORMER "Spongebob Squarepants" FLAGS DCP INDEX 01 00:00:00FILE "Spongebob Squarepants - 2005 - The Yellow Album [FLAC]\22 - Jingle Bells.wav" WAVE TRACK 22 AUDIO TITLE "Jingle Bells" PERFORMER "Spongebob Squarepants" FLAGS DCP INDEX 01 00:00:00FILE "Spongebob Squarepants - 2005 - The Yellow Album [FLAC]\23 - B.C. Strut.wav" WAVE TRACK 23 AUDIO TITLE "B.C. Strut" PERFORMER "Spongebob Squarepants" FLAGS DCP INDEX 01 00:00:00 TRACK 24 MODEx/2xxx TITLE "???" PERFORMER "Spongebob Squarepants" INDEX 00 01:09:55

Скриншот спектра частот

[teatrix.ru].t12920.torrent 
Торрент: Зарегистрирован [ 2016-01-20 09:10 ] · B38B5D55BADD3464D959E0B0127FDC977FAB0206

Скачать .torrent

Скачать

17 KB

Статус: проверено
Скачан: 2 раз
Размер: 197 MB
terms.php



Быстрый ответ

Имя:

      
Для отправки сообщений необходимо включить JavaScript
Показать сообщения:    

Текущее время: 08-Дек 07:03

Часовой пояс: UTC + 3


Вы можете начинать темы
Вы можете отвечать на сообщения
Вы не можете редактировать свои сообщения
Вы не можете удалять свои сообщения
Вы не можете голосовать в опросах
Вы не можете прикреплять файлы к сообщениям
Вы можете скачивать файлы