[TR24][SM][OF] Spark - Wild Territories: Ince- Songs in Other Words; Vivaldi- Concerto in G Major; Telemann- Concerto in E Minor; Bunch- Alpha Dog (Spark Quintet) - 2015 (Classical)


Статистика раздачи [Обновить пиров]
Размер:  619 MB   |    Зарегистрирован:  10 месяцев 15 дней   |    Скачан:  0 раз

Полного источника не было: Никогда

Личеров:  2  [  0 KB/s  ]   Подробная статистика пиров
 
   
 
 
 

[Цитировать]

Spark - Wild Territories: Ince- Songs in Other Words; Vivaldi- Concerto in G Major; Telemann- Concerto in E Minor; Bunch- Alpha Dog
Композитор: Ince, Vivaldi, Telemann, Bunch
Год издания: 2015
Жанр: Classical
Издатель (лейбл)/ссылка на официальность: Berlin Classics
Продолжительность: 00:59:54
Наличие сканов: да
Контейнер: FLAC (*.flac)
Тип рипа: tracks
Разрядность: 24bit / 44,1kHz
Количество каналов: 2.0-Исполнители:
Spark Quintet

Треклист:

Kamran Ince (1960-):
01. Songs in Other Words: Folk Song (01:57)
Chiel Meijering (1954-):
02. When the Cock Crowed His Warning (04:51)
03. Candybox (03:58)
04. Silver Falls in the Heart of the Forest (03:22)
Kamran Ince (1960-):
05. Obsession (01:00)
06. Restless (01:05)
Chiel Meijering (1954-):
07. Cruiser (03:18)
Antonio Vivaldi (1678–1741):
08. Concerto "Alla rustica" in G Major, RV 151: I. Presto (01:24)
Kamran Ince (1960-):
09. Songs in Other Words: Agitation (02:07)
Georg Philipp Telemann (1681-1767):
10. Concerto in E Minor, TWV 52:e1: IV. Presto (02:46)
Kamran Ince (1960-):
11. Songs in Other Words: Venetian Gondola Song (04:40)
Chiel Meijering (1954-):
12. Beyonce (04:36)
Kenji Bunch (1973-):
Alpha Dog:
13. I. Lively (04:49)
14. II. Moderate (06:14)
15. III. Interlude - Fast (04:05)
Kamran Ince (1960-):
16. Lost Happiness (00:33)
17. Dance of Rebels (02:23)
Johannes Motschmann (1978-):
18. Encore (06:52)

Динамический диапазон - DR9:

foobar2000 1.3.2 / Замер динамического диапазона (DR) 1.1.1Дата отчёта: 2016-01-19 22:43:59
--------------------------------------------------------------------------------Анализ: Spark / Wild Territories--------------------------------------------------------------------------------
DR Пики RMS Продолжительность трека--------------------------------------------------------------------------------DR11 0.00 дБ -15.46 дБ 1:57 01-Songs in Other Words: Folk SongDR6 0.00 дБ -10.82 дБ 4:51 02-When the Cock Crowed His WarningDR8 0.00 дБ -9.87 дБ 3:58 03-CandyboxDR14 0.00 дБ -17.47 дБ 3:22 04-Silver Falls in the Heart of the ForestDR11 -1.24 дБ -17.33 дБ 1:00 05-Songs in Other Words: ObsessionDR8 0.00 дБ -10.92 дБ 1:05 06-Songs in Other Words: RestlessDR10 0.00 дБ -11.41 дБ 3:18 07-CruiserDR7 0.00 дБ -10.19 дБ 1:24 08-Concerto "Alla rustica" in G Major, RV 151: I. PrestoDR8 0.00 дБ -10.06 дБ 2:07 09-Songs in Other Words: AgitationDR8 0.00 дБ -10.97 дБ 2:46 10-Concerto in E Minor, TWV 52:e1: IV. PrestoDR10 0.00 дБ -14.50 дБ 4:40 11-Songs in Other Words: Venetian Gondola SongDR9 0.00 дБ -11.18 дБ 4:36 12-BeyoncéDR8 0.00 дБ -12.07 дБ 4:49 13-Alpha Dog: I. LivelyDR12 0.00 дБ -16.83 дБ 6:14 14-Alpha Dog: II. ModerateDR9 0.00 дБ -12.58 дБ 4:05 15-Alpha Dog: III. Interlude - FastDR10 -5.50 дБ -18.96 дБ 0:33 16-Songs in Other Words: Lost HappinessDR7 0.00 дБ -8.91 дБ 2:23 17-Songs in Other Words: Dance of RebelsDR8 0.00 дБ -11.19 дБ 6:52 18-Encore--------------------------------------------------------------------------------
Количество треков: 18Реальные значения DR: DR9
Частота: 44100 ГцКаналов: 2Разрядность: 24Битрейт: 1438 кбит/сКодек: FLAC================================================================================
[teatrix.ru].t12925.torrent 
Торрент: Зарегистрирован [ 2016-01-20 09:10 ] · F19E9BB3679C1484197254E9BD50E46D7625020A

Скачать .torrent

Скачать

14 KB

Статус: проверено
Скачан: 0 раз
Размер: 619 MB
terms.php



Быстрый ответ

Имя:

      
Для отправки сообщений необходимо включить JavaScript
Показать сообщения:    

Текущее время: 05-Дек 05:25

Часовой пояс: UTC + 3


Вы можете начинать темы
Вы можете отвечать на сообщения
Вы не можете редактировать свои сообщения
Вы не можете удалять свои сообщения
Вы не можете голосовать в опросах
Вы не можете прикреплять файлы к сообщениям
Вы можете скачивать файлы