Без иллюзий / Дом из лавы / Casa de Lava / Down to Earth (Педру Кошта / Pedro Costa) [1994, Португалия, Франция, Германия, драма, DVDRip-AVC] MVO + Sub Eng + Original Por


Статистика раздачи [Обновить пиров]
Размер:  2.15 GB   |    Зарегистрирован:  10 месяцев 20 дней   |    Скачан:  0 раз

Полного источника не было: Никогда

Личеров:  2  [  0 KB/s  ]   Подробная статистика пиров
 
   
 
 
 

[Цитировать]

Без иллюзий / Дом из лавы / Casa de Lava / Down to Earth
Страна: Португалия, Франция, Германия
Жанр: драма
Год выпуска: 1994
Продолжительность: 01:45:33
Перевод: Профессиональный (многоголосый закадровый) студия СВ-Дубль
Cубтитры: английские
Оригинальная аудиодорожка: португальский
Навигация по главам: есть
Режиссер: Педру Кошта / Pedro Costa
В ролях: Инеш де Медейруш, Исаак Де Банколе, Эдит Скоб, Pedro Hestnes, Кристьяно Андраде Алвес, Антонио Андраде, Дэниэл Андраде, Мануэль Андраде, Рауль Андраде, Хоаким Антунес
О фильме: Леао, рабочий-гастарбайтер на лиссабонской стройке, падает в обморок, а обморок оборачивается двухмесячной комой. Мариана, молодая медсестра, ухаживает за пациентом и отправляется сопровождать его в возвращении на родину, на Кабо Верде, где нет нужных медикаментов, но наверняка есть родственники Леао. Мариана пытается раскрыть прошлое неподвижного пациента, оно становится ясным, то вновь запутывается, и заставляет ее каждый день смотреть на жизнь под новым углом. Пробуждение главного героя открывает новый виток спирали.
Доп. информация: http://www.imdb.com/title/tt0109384/
Награды и номинации:
Кинофестиваль Entrevues (1994) – гран-при за “Лучший иностранный фильм” (Педру Кошта)
Национальная премия Золотой Глобус (Globos de Ouro,1994) – номинация “Лучшая актриса” (Инеш де Медейруш)
Кинофестиваль в Салониках – приз за “Особые художественные заслуги” (Педру Кошта)

Исходник: http://teatrix.ru/viewtopic.php?t=7230
Сэмпл: http://sendfile.su/1194872
Качество видео: DVDRip-AVC
Формат видео: MKV
Видео: x264, 672x576@954x576 (1.66:1), 25 fps, ~2500 kbps avg, 0.25 bit/pixel
Аудио #1: 48 kHz, AC3 Dolby Digital, 2/0 (L,R) ch, ~192 kbps avg - русский
Аудио #2: 48 kHz, AC3 Dolby Digital, 2/0 (L,R) ch, ~224 kbps avg - оригинал

MediaInfo

Общее
Уникальный идентификатор : 203553071113096775306167192170978234283 (0x9922E53F054D64B8B821AB685C4A4FAB)
Полное имя : E:\Фильмы\Casa.de.Lava.1994\Casa.de.Lava.1994.DVDRip-AVC.mkv
Формат : Matroska
Версия формата : Version 2
Размер файла : 2,15 Гбайт
Продолжительность : 1 ч. 45 м.
Общий поток : 2920 Кбит/сек
Название фильма : Casa de Lava (Pedro Costa, 1994) DVDRip-AVC
Дата кодирования : UTC 2016-01-11 09:39:35
Программа кодирования : mkvmerge v7.8.0 ('River Man') 32bit built on Apr 3 2015 12:11:22
Библиотека кодирования : libebml v1.3.1 + libmatroska v1.4.2
Видео
Идентификатор : 1
Формат : AVC
Формат/Информация : Advanced Video Codec
Профиль формата : High@L4.1
Параметр CABAC формата : Да
Параметр ReFrames формата : 11 кадров
Идентификатор кодека : V_MPEG4/ISO/AVC
Продолжительность : 1 ч. 45 м.
Битрейт : 2500 Кбит/сек
Ширина : 672 пикселя
Высота : 576 пикселей
Соотношение сторон : 5:3
Соотношение сторон в оригинале : 5:3
Режим частоты кадров : Постоянный
Частота кадров : 25,000 кадров/сек
Цветовое пространство : YUV
Субдискретизация насыщенности : 4:2:0
Битовая глубина : 8 бит
Тип развёртки : Прогрессивная
Бит/(Пиксели*Кадры) : 0.258
Размер потока : 1,80 Гбайт (84%)
Библиотека кодирования : x264 core 148 r2579 73ae2d1
Настройки программы : cabac=1 / ref=11 / deblock=1:-1:-1 / analyse=0x3:0x133 / me=umh / subme=10 / psy=1 / psy_rd=1.00:0.15 / mixed_ref=1 / me_range=32 / chroma_me=1 / trellis=2 / 8x8dct=1 / cqm=0 / deadzone=21,11 / fast_pskip=0 / chroma_qp_offset=-3 / threads=6 / lookahead_threads=1 / sliced_threads=0 / nr=0 / decimate=0 / interlaced=0 / bluray_compat=0 / constrained_intra=0 / bframes=11 / b_pyramid=2 / b_adapt=2 / b_bias=0 / direct=3 / weightb=1 / open_gop=0 / weightp=2 / keyint=250 / keyint_min=25 / scenecut=40 / intra_refresh=0 / rc=2pass / mbtree=0 / bitrate=2500 / ratetol=1.0 / qcomp=0.70 / qpmin=10 / qpmax=51 / qpstep=4 / cplxblur=20.0 / qblur=0.5 / ip_ratio=1.30 / pb_ratio=1.20 / aq=1:0.70 / zones=154102,158334,b=0.5
Язык : English
Default : Да
Forced : Нет
Цветовой диапазон : Limited
Коэффициенты матрицы : BT.601
Аудио #1
Идентификатор : 2
Формат : AC-3
Формат/Информация : Audio Coding 3
Расширение режима : CM (complete main)
Параметр Endianness формата : Big
Идентификатор кодека : A_AC3
Продолжительность : 1 ч. 45 м.
Вид битрейта : Постоянный
Битрейт : 192 Кбит/сек
Каналы : 2 канала
Расположение каналов : Front: L R
Частота : 48,0 КГц
Метод сжатия : С потерями
Размер потока : 145 Мбайт (7%)
Заголовок : MVO - студия СВ-Дубль
Язык : Russian
Default : Да
Forced : Нет
Аудио #2
Идентификатор : 3
Формат : AC-3
Формат/Информация : Audio Coding 3
Расширение режима : CM (complete main)
Параметр Endianness формата : Big
Идентификатор кодека : A_AC3
Продолжительность : 1 ч. 45 м.
Вид битрейта : Постоянный
Битрейт : 224 Кбит/сек
Каналы : 2 канала
Расположение каналов : Front: L R
Частота : 48,0 КГц
Метод сжатия : С потерями
Размер потока : 169 Мбайт (8%)
Заголовок : Original
Язык : Portuguese
Default : Нет
Forced : Нет
Текст
Идентификатор : 4
Формат : VobSub
Идентификатор кодека : S_VOBSUB
Идентификатор кодека/Информация : Picture based subtitle format used on DVDs
Язык : English
Default : Нет
Forced : Нет
Меню
00:00:00.000 : en:Chapter 01
00:09:14.880 : en:Chapter 02
00:17:36.000 : en:Chapter 03
00:27:23.040 : en:Chapter 04
00:39:02.400 : en:Chapter 05
00:50:17.280 : en:Chapter 06
00:55:47.520 : en:Chapter 07
01:05:36.960 : en:Chapter 08
01:12:14.880 : en:Chapter 09
01:23:16.800 : en:Chapter 10
01:34:26.400 : en:Chapter 11
01:42:44.640 : en:Chapter 12
[teatrix.ru].t12929.torrent 
Торрент: Зарегистрирован [ 2016-01-20 13:30 ] · 69E51A7FEE922BB816551285D8F3EFDE9A40873B

Скачать .torrent

Скачать

11 KB

Статус: проверено
Скачан: 0 раз
Размер: 2.15 GB
terms.php



Быстрый ответ

Имя:

      
Для отправки сообщений необходимо включить JavaScript
Показать сообщения:    

Текущее время: 09-Дек 16:37

Часовой пояс: UTC + 3


Вы можете начинать темы
Вы можете отвечать на сообщения
Вы не можете редактировать свои сообщения
Вы не можете удалять свои сообщения
Вы не можете голосовать в опросах
Вы не можете прикреплять файлы к сообщениям
Вы можете скачивать файлы