Часы отдыха / The Off Hours (Меган Гриффитс / Megan Griffiths) [2011, США, драма, DVDRip] Sub Rus + Original Eng


Статистика раздачи [Обновить пиров]
Размер:  1.46 GB   |    Зарегистрирован:  10 месяцев 14 дней   |    Скачан:  0 раз

Полного источника не было: Никогда

 
   
 
 
 

[Цитировать]

Часы отдыха / The Off Hours-Страна: США
Жанр: драма
Год выпуска: 2011
Продолжительность: 01:34:15-Перевод: Субтитры (by sonnyb)
Cубтитры: русские
Оригинальная аудиодорожка: английский-Режиссер: Меган Гриффитс / Megan Griffiths
В ролях: Эми Саймец, Росс Партридж, Тони Дуп, Скот МакНэри, Брэт Робертс, Уолли Далтон-Описание: Официантку, которая работает в ночную смену в столовой в небольшом промышленном городке, заинтриговал обаятельный водитель грузовика, в то время как владелец столовой изо всех сил пытается сохранить свой бизнес, который уже давно еле держится на плаву.
Вторая полнометражная работа Меган Гриффитс является хорошим примером теплого независимого фильма об обычных людях, который не делает их героями, но и не видит их злодеями. Эпизоды предельно просты и обыденны, но совсем не пусты и каждый из них привносит что-то новое в историю жизни героев и их взаимоотношений. Придорожная забегаловка является своеобразным центром этой заброшенной ночной вселенной, в которой все персонажи иногда собираются вместе и делят шутки, время, радости и горечи. (с) Виктория Бувье-Качество видео: DVDRip
Формат видео: AVI
Видео: XviD, 720x400, 23.976 fps, 2 021 Kbps
Аудио: MPEG Audio, 192 Kbps, 2 channels

Пример субтитров

383
00:32:37,723 --> 00:32:40,023
Останешься там работать?
384
00:32:40,025 --> 00:32:43,427
Ммм... не знаю.
385
00:32:46,731 --> 00:32:48,732
Хочешь попробовать?
386
00:32:50,668 --> 00:32:52,736
Давай...
387
00:32:52,738 --> 00:32:53,637
Порулить.
388
00:32:55,174 --> 00:32:57,274
- Да.
- Садись.
389
00:33:10,021 --> 00:33:11,288
Итак, вот твой урок, готова?
390
00:33:11,290 --> 00:33:13,457
Угу.
391
00:33:13,459 --> 00:33:14,992
Кепку надень.
392
00:33:14,994 --> 00:33:16,126
Спасибо.
393
00:33:16,128 --> 00:33:17,461
Видишь этот ключ?
394
00:33:17,463 --> 00:33:18,662
- Угу.
- Это зажигание.
395
00:33:18,664 --> 00:33:20,664
- Ага.
- Мотор.
396
00:33:20,666 --> 00:33:22,299
Начинаем здесь.
397
00:33:22,301 --> 00:33:25,068
Сцепление, тормоз, акселератор.
398
00:33:25,070 --> 00:33:26,069
Ты знаешь, что это.
399
00:33:26,071 --> 00:33:28,605
- Моя палка.
- Ну да.
400
00:33:28,607 --> 00:33:29,773
Итак, нужно вжать сцепление.
401
00:33:29,775 --> 00:33:31,241
Хорошо.
402
00:33:31,243 --> 00:33:34,644
И включить зажигание,
повернув ключ.
403
00:33:34,646 --> 00:33:36,279
Да, он немного застревает,
404
00:33:36,281 --> 00:33:38,181
Немного покачай им.
405
00:33:38,183 --> 00:33:41,118
Вот так и заводи.
406
00:33:41,120 --> 00:33:42,486
Вот так.

MediaInfo

Format : AVI
Format/Info : Audio Video Interleave
File size : 1.46 GiB
Duration : 1h 34mn
Overall bit rate : 2 222 Kbps
Writing application : VirtualDubMod 1.5.10.3 | www.virtualdub-fr.org || (build 2550/release)
Writing library : VirtualDubMod build 2550/release
Video
ID : 0
Format : MPEG-4 Visual
Format profile : Advanced Simple@L5
Format settings, BVOP : 1
Format settings, QPel : No
Format settings, GMC : No warppoints
Format settings, Matrix : Default (MPEG)
Codec ID : XVID
Codec ID/Hint : XviD
Duration : 1h 34mn
Bit rate : 2 021 Kbps
Width : 720 pixels
Height : 400 pixels
Display aspect ratio : 16:9
Frame rate : 23.976 (23976/1000) fps
Color space : YUV
Chroma subsampling : 4:2:0
Bit depth : 8 bits
Scan type : Progressive
Compression mode : Lossy
Bits/(Pixel*Frame) : 0.293
Stream size : 1.33 GiB (91%)
Writing library : XviD 1.2.1 (UTC 2008-12-04)
Audio
ID : 1
Format : MPEG Audio
Format version : Version 1
Format profile : Layer 3
Codec ID : 55
Codec ID/Hint : MP3
Duration : 1h 34mn
Bit rate mode : Constant
Bit rate : 192 Kbps
Channel(s) : 2 channels
Sampling rate : 48.0 KHz
Compression mode : Lossy
Stream size : 129 MiB (9%)
Alignment : Aligned on interleaves
Interleave, duration : 42 ms (1.00 video frame)
Interleave, preload duration : 504 ms
Writing library : LAME3.99r
Encoding settings : -m s -V 4 -q 0 -lowpass 18.6 -b 192
[teatrix.ru].t12932.torrent 
Торрент: Зарегистрирован [ 2016-01-20 18:55 ] · F75106CECD63FBDA9432C0D21945CC8A8FA9D628

Скачать .torrent

Скачать

15 KB

Статус: проверено
Скачан: 0 раз
Размер: 1.46 GB
terms.php



Быстрый ответ

Имя:

      
Для отправки сообщений необходимо включить JavaScript
Показать сообщения:    

Текущее время: 04-Дек 17:18

Часовой пояс: UTC + 3


Вы можете начинать темы
Вы можете отвечать на сообщения
Вы не можете редактировать свои сообщения
Вы не можете удалять свои сообщения
Вы не можете голосовать в опросах
Вы не можете прикреплять файлы к сообщениям
Вы можете скачивать файлы