The Life and Times of Count Luchino Visconti / Жизнь и Эпоха графа Лукино Висконти (Adam Low/Адам Лоу) [2002, биографический, TVRip]


Статистика раздачи [Обновить пиров]
Размер:  1.04 GB   |    Зарегистрирован:  10 месяцев 19 дней   |    Скачан:  0 раз

Полного источника не было: Никогда

 
   
 
 
 

[Цитировать]

The Life and Times of Count Luchino Visconti / Жизнь и Эпоха графа Лукино Висконти
Дата/Год выпуска: 2002
Страна: United Kingdom
Жанр: биографический
Продолжительность: 01:42:44
Перевод: Субтитры
Доп. инфо о переводе: Ehsan Shakuri
Русские субтитры: есть
Формат субтитров: hardsub (неотключаемые)
Оригинальная аудиодорожка: английский
Режиссер: Adam Low/Адам Лоу
Описание: Жизнь, история семьи и кинематографический путь легендарного итальянского режиссера Лукино Висконти исследованы в документальном фильме Адама Лоу, премьера которого состоялась в 2002 году на Лондонском кинофестивале в связи с ретроспективой фильмов Висконти.
Знаменитые коллеги и современники Висконти участвуют в фильме - Клаудия Кардинале, Франко Дзеффирелли, Хельмут Бергер и др.
Доп. информация: некоторые интервью не переведены из-за отсутствия оригинальных субтитров.
качество: TVRip
формат: AVI
Видео: XviD, 512x288, 16:9, 1324 Kbps, 25.000 fps
Аудио: MP3, 112 Kbps, 44.1 KHz, 2 channels

MediaInfo

GeneralComplete name : Life and Times of Luchino Visconti.aviFormat : AVIFormat/Info : Audio Video InterleaveFile size : 1.04 GiBDuration : 1h 42mnOverall bit rate : 1 446 KbpsWriting application : Nandub v1.0rc2Writing library : VirtualDub build 32817/release
VideoID : 0Format : MPEG-4 VisualFormat profile : Advanced Simple@L5Format settings, BVOP : 2Format settings, QPel : NoFormat settings, GMC : No warppointsFormat settings, Matrix : Default (H.263)Muxing mode : Packed bitstreamCodec ID : XVIDCodec ID/Hint : XviDDuration : 1h 42mnBit rate : 1 324 KbpsWidth : 512 pixelsHeight : 288 pixelsDisplay aspect ratio : 16:9Frame rate : 25.000 fpsColor space : YUVChroma subsampling : 4:2:0Bit depth : 8 bitsScan type : ProgressiveCompression mode : LossyBits/(Pixel*Frame) : 0.359Stream size : 973 MiB (92%)Writing library : XviD 64
AudioID : 1Format : MPEG AudioFormat version : Version 1Format profile : Layer 3Mode : Joint stereoMode extension : MS StereoCodec ID : 55Codec ID/Hint : MP3Duration : 1h 42mnBit rate mode : ConstantBit rate : 112 KbpsChannel(s) : 2 channelsSampling rate : 44.1 KHzCompression mode : LossyStream size : 82.1 MiB (8%)Alignment : Split accross interleavesInterleave, duration : 40 ms (1.00 video frame)Interleave, preload duration : 500 ms

Скриншоты

[teatrix.ru].t12934.torrent 
Торрент: Зарегистрирован [ 2016-01-20 18:55 ] · F795A55E624262800DE0E99E616566504FE0EED7

Скачать .torrent

Скачать

11 KB

Статус: проверено
Скачан: 0 раз
Размер: 1.04 GB
terms.php



Быстрый ответ

Имя:

      
Для отправки сообщений необходимо включить JavaScript
Показать сообщения:    

Текущее время: 08-Дек 19:08

Часовой пояс: UTC + 3


Вы можете начинать темы
Вы можете отвечать на сообщения
Вы не можете редактировать свои сообщения
Вы не можете удалять свои сообщения
Вы не можете голосовать в опросах
Вы не можете прикреплять файлы к сообщениям
Вы можете скачивать файлы