Гамлет: Камбербэтч / National Theatre Live: Hamlet (Линдси Тёрнер / Lindsay Turner) [2015, Великобритания, Трагедия, HDTV] Barbican


 

[Цитировать]

Гамлет: Камбербэтч / National Theatre Live: Hamlet
Название театра: Barbican
Страна: Великобритания
Жанр: Трагедия
Год выпуска: 2015
Продолжительность: 03:00:19 (00:12:26 + 01:49:49 + 00:58:04)
Перевод: Субтитры
Cубтитры: русские, английские, шведские
Оригинальная аудиодорожка: английский
Автор рипа: неизвестен
Режиссёр: Линдси Тёрнер / Lindsay Turner
В ролях:
Гамлет – Бенедикт Камбербэтч
Клавдий – Киаран Хайндс
Горацио – Лео Билл
Офелия – Сиан Брук
Гертруда – Анастасия Хилл
Описание: Королевская семья разваливается на части: король убит, его коварный брат взошел на трон. Принц Гамлет, впавший в отчаяние, вынужден мстить за смерть своего отца – и сложившаяся при дворе ситуация ставит под угрозу не только безопасность всей страны, но и рассудок принца.
Доп. информация:
Интро + Акт I + Акт II
Качество видео: HDTV 1080
Формат видео: TS
Видео: MPEG-TS, 1920x1080, 25 fps, 29717 kbps
Аудио: English, 48 kHz, MPEG Layer 3, 6 ch, ~640.00 kbps avg

MediaInfo1 Intro.ts

General
ID : 1
Format : MPEG-TS
File size : 2.58 GiB
Duration : 12mn 25s
Overall bit rate : 29.7 Mbps
Video
ID : 308 (0x134)
Menu ID : 1 (0x1)
Format : AVC
Format/Info : Advanced Video Codec
Format profile : High@L4.1
Format settings, CABAC : Yes
Format settings, ReFrames : 4 frames
Format settings, GOP : M=1, N=36
Duration : 12mn 25s
Bit rate : 27.6 Mbps
Width : 1 920 pixels
Height : 1 080 pixels
Display aspect ratio : 16:9
Frame rate : 25.000 fps
Color space : YUV
Chroma subsampling : 4:2:0
Bit depth : 8 bits
Scan type : Interlaced
Scan order : Top Field First
Bits/(Pixel*Frame) : 0.532
Stream size : 2.40 GiB (93%)
Color primaries : BT.709-5, BT.1361, IEC 61966-2-4, SMPTE RP177
Transfer characteristics : BT.709-5, BT.1361
Matrix coefficients : BT.709-5, BT.1361, IEC 61966-2-4 709, SMPTE RP177
Audio
ID : 256 (0x100)
Menu ID : 1 (0x1)
Format : AC-3
Format/Info : Audio Coding 3
Mode extension : CM (complete main)
Duration : 12mn 26s
Bit rate mode : Constant
Bit rate : 640 Kbps
Channel(s) : 6 channels
Channel positions : Front: L C R, Side: L R, LFE
Sampling rate : 48.0 KHz
Video delay : -216ms
Stream size : 56.9 MiB (2%)
Language : English
Menu
ID : 32 (0x20)
Menu ID : 1 (0x1)
Duration : 12mn 25s
List : 256 (0x100) (AC-3, English) / 308 (0x134) (AVC)
Language : English
Service name : NT LIVE HAMLET
Service provider : Links Broadcast
Service type : digital television
Maximum bit rate : 200000000

2 Part I.ts

General
ID : 1
Format : MPEG-TS
File size : 22.8 GiB
Duration : 1h 49mn
Overall bit rate : 29.7 Mbps
Video
ID : 308 (0x134)
Menu ID : 1 (0x1)
Format : AVC
Format/Info : Advanced Video Codec
Format profile : High@L4.1
Format settings, CABAC : Yes
Format settings, ReFrames : 4 frames
Duration : 1h 49mn
Bit rate : 27.6 Mbps
Width : 1 920 pixels
Height : 1 080 pixels
Display aspect ratio : 16:9
Frame rate : 25.000 fps
Color space : YUV
Chroma subsampling : 4:2:0
Bit depth : 8 bits
Scan type : Interlaced
Scan order : Top Field First
Bits/(Pixel*Frame) : 0.532
Stream size : 21.2 GiB (93%)
Color primaries : BT.709-5, BT.1361, IEC 61966-2-4, SMPTE RP177
Transfer characteristics : BT.709-5, BT.1361
Matrix coefficients : BT.709-5, BT.1361, IEC 61966-2-4 709, SMPTE RP177
Audio
ID : 256 (0x100)
Menu ID : 1 (0x1)
Format : AC-3
Format/Info : Audio Coding 3
Mode extension : CM (complete main)
Duration : 1h 49mn
Bit rate mode : Constant
Bit rate : 640 Kbps
Channel(s) : 6 channels
Channel positions : Front: L C R, Side: L R, LFE
Sampling rate : 48.0 KHz
Video delay : 136ms
Stream size : 503 MiB (2%)
Language : English
Text #1
ID : 1024 (0x400)
Menu ID : 1 (0x1)
Format : DVB Subtitles
Language : English
Text #2
ID : 1033 (0x409)
Menu ID : 1 (0x1)
Format : DVB Subtitles
Language : Swedish
Text #3
ID : 1035 (0x40B)
Menu ID : 1 (0x1)
Format : DVB Subtitles
Language : Russian
Menu
ID : 32 (0x20)
Menu ID : 1 (0x1)
Duration : 1h 49mn
List : 256 (0x100) (AC-3, English) / 308 (0x134) (AVC) / 1024 (0x400) (DVB Subtitles, English) / 1033 (0x409) (DVB Subtitles, Swedish) / 1035 (0x40B) (DVB Subtitles, Russian)
Language : English / / English / Swedish / Russian
Service name : NT LIVE HAMLET
Service provider : Links Broadcast
Service type : digital television
Maximum bit rate : 200000000

3 Part II.ts

General
ID : 1
Format : MPEG-TS
File size : 12.1 GiB
Duration : 58mn 4s
Overall bit rate : 29.7 Mbps
Video
ID : 308 (0x134)
Menu ID : 1 (0x1)
Format : AVC
Format/Info : Advanced Video Codec
Format profile : High@L4.1
Format settings, CABAC : Yes
Format settings, ReFrames : 4 frames
Duration : 58mn 4s
Bit rate : 27.6 Mbps
Width : 1 920 pixels
Height : 1 080 pixels
Display aspect ratio : 16:9
Frame rate : 25.000 fps
Color space : YUV
Chroma subsampling : 4:2:0
Bit depth : 8 bits
Scan type : Interlaced
Bits/(Pixel*Frame) : 0.532
Stream size : 11.2 GiB (93%)
Color primaries : BT.709-5, BT.1361, IEC 61966-2-4, SMPTE RP177
Transfer characteristics : BT.709-5, BT.1361
Matrix coefficients : BT.709-5, BT.1361, IEC 61966-2-4 709, SMPTE RP177
Audio
ID : 256 (0x100)
Menu ID : 1 (0x1)
Format : AC-3
Format/Info : Audio Coding 3
Mode extension : CM (complete main)
Duration : 58mn 4s
Bit rate mode : Constant
Bit rate : 640 Kbps
Channel(s) : 6 channels
Channel positions : Front: L C R, Side: L R, LFE
Sampling rate : 48.0 KHz
Video delay : -24ms
Stream size : 266 MiB (2%)
Language : English
Menu
ID : 32 (0x20)
Menu ID : 1 (0x1)
Duration : 58mn 4s
List : 256 (0x100) (AC-3, English) / 308 (0x134) (AVC)
Language : English
Service name : NT LIVE HAMLET
Service provider : Links Broadcast
Service type : digital television
Maximum bit rate : 200000000

Скриншот с названием постановки

Скриншоты




Показать сообщения:    

Текущее время: 07-Дек 19:28

Часовой пояс: UTC + 3


Вы не можете начинать темы
Вы не можете отвечать на сообщения
Вы не можете редактировать свои сообщения
Вы не можете удалять свои сообщения
Вы не можете голосовать в опросах
Вы не можете прикреплять файлы к сообщениям
Вы не можете скачивать файлы