Розенкранц и Гильденштерн мертвы / Rosencrantz & Guildenstern Are Dead (Том Стоппард / Tom Stoppard) [1990, Великобритания, США, драма, комедия, BDRip 1080p] 2xMVO + VO + AVO + Sub Rus, Eng + Original Eng


 

[Цитировать]

Розенкранц и Гильденштерн мертвы / Rosencrantz & Guildenstern Are Dead
Страна: Великобритания, США
Жанр: драма, комедия
Год выпуска: 1990
Продолжительность: 01:57:00
    -Перевод 1: Профессиональный (многоголосый закадровый) Культура
    Перевод 2: Одноголосый закадровый Завгородний Владимир
    Перевод 3: Профессиональный (многоголосый закадровый) РТР
    Перевод 4: Авторский (одноголосый закадровый) Сергей Кузнецов
      -Cубтитры: русские, украинские, английские
      Оригинальная аудиодорожка: английский
        -Режиссер: Том Стоппард / Tom Stoppard
          -В ролях: Гари Олдман, Тим Рот, Ричард Дрейфусс, Ливио Бадурина, Томислав Маретич, Маре Млачник, Срджан Сорик, Младен Васари, Зелько Вукмирича, Бранко Заврсан
          Описание: Блестящая лента Тома Стоппарда, в которой он с воистину британским юмором наводит зрителя на философские размышления о сущности бытия, используя для этого вывернутого наизнанку "Гамлета" Вильяма Шекспира. В ролях лучшие из молодых английских актеров - Тим Рот и Гарри Олдмэн - разыгрывают странную и вместе с тем смешную историю, поставленную, кстати, по всем законам театра, в которой главные герои шекспировского Гамлета становятся второстепенными, второстепенные главными, сюжетные линии Шекспира - не существенными, а события о которых Шекспир и не упоминал - достоянием зрителя.
            -Релиз от:
              -Тип релиза: BDRip 1080p
              Контейнер: MKV
                -Видео: 1920x1040 (1.85:1), 23,976 fps, MPEG-4 AVC, ~ 13100 kbps, 0.274 bits/(pixel*frame)
                  -Аудио 1: Russian: 48 kHz, AC3, 2/0 (L,R) ~192.00 kbps avg | Культура
                  Аудио 2: Russian: 48 kHz, AC3, 2/0 (L,R) ~192.00 kbps avg | Завгородний Владимир
                  Аудио 3: Russian: 48 kHz, AC3, 2/0 (L,R) ~192.00 kbps avg | РТР
                  Аудио 4: Russian: 48 kHz, AC3, 2/0 (L,R) ~192.00 kbps avg | Кузнецов Сергей
                  Аудио 5: English: 48 kHz, DTS, 2/0 (L,R) ~1509.00 kbps avg

                  MediaInfo

                  General
                  Уникальный идентификатор : 186847070294573646972665832182842664868 (0x8C916FD02AE40CE88D5A81DE56CC27A4)
                  Полное имя : D:\Rosencrantz & Guildenstern Are Dead.BDRip.1080p.mkv
                  Формат : Matroska
                  Версия формата : Version 2
                  Размер файла : 12.6 GiB
                  Продолжительность : 1h 57mn
                  Общий поток : 15.4 Mbps
                  Название фильма : Розенкранц и Гильденстерн мертвы_Rosencrantz & Guildenstern Are Dead.1990.BDRip.1080p
                  Дата кодирования : UTC 2016-01-17 10:30:09
                  Программа кодирования : mkvmerge v7.7.0 ('Six Voices') 64bit built on Feb 28 2015 23:39:33
                  Библиотека кодирования : libebml v1.3.1 + libmatroska v1.4.2
                  Video
                  Идентификатор : 1
                  Формат : AVC
                  Формат/Информация : Advanced Video Codec
                  Профиль формата : High@L4.1
                  Параметр CABAC формата : Yes
                  Параметр ReFrames формата : 4 frames
                  Идентификатор кодека : V_MPEG4/ISO/AVC
                  Продолжительность : 1h 57mn
                  Битрейт : 13.1 Mbps
                  Ширина : 1 920 pixels
                  Высота : 1 040 pixels
                  Соотношение сторон : 1.85:1
                  Режим частоты кадров : Constant
                  Частота кадров : 23.976 fps
                  Цветовое пространство : YUV
                  Субдискретизация насыщенности : 4:2:0
                  Битовая глубина : 8 bits
                  Тип развёртки : Progressive
                  Бит/(Пиксели*Кадры) : 0.274
                  Размер потока : 10.5 GiB (83%)
                  Заголовок : Розенкранц и Гильденстерн мертвы_Rosencrantz & Guildenstern Are Dead.1990.BDRip.1080p
                  Библиотека кодирования : x264 core 148 r2638 7599210
                  Настройки программы : cabac=1 / ref=4 / deblock=1:-3:-3 / analyse=0x3:0x113 / me=umh / subme=8 / psy=1 / psy_rd=1.15:0.00 / mixed_ref=1 / me_range=32 / chroma_me=1 / trellis=1 / 8x8dct=1 / cqm=0 / deadzone=21,11 / fast_pskip=1 / chroma_qp_offset=-2 / threads=24 / lookahead_threads=4 / sliced_threads=0 / nr=0 / decimate=1 / interlaced=0 / bluray_compat=0 / constrained_intra=0 / bframes=3 / b_pyramid=2 / b_adapt=2 / b_bias=0 / direct=3 / weightb=1 / open_gop=0 / weightp=2 / keyint=240 / keyint_min=24 / scenecut=40 / intra_refresh=0 / rc_lookahead=50 / rc=2pass / mbtree=1 / bitrate=13110 / ratetol=1.0 / qcomp=0.60 / qpmin=0 / qpmax=69 / qpstep=4 / cplxblur=20.0 / qblur=0.5 / ip_ratio=1.40 / aq=3:0.80
                  Язык : English
                  Default : Yes
                  Forced : No
                  Audio #1
                  Идентификатор : 2
                  Формат : AC-3
                  Формат/Информация : Audio Coding 3
                  Расширение режима : CM (complete main)
                  Параметр Endianness формата : Big
                  Идентификатор кодека : A_AC3
                  Продолжительность : 1h 57mn
                  Вид битрейта : Constant
                  Битрейт : 192 Kbps
                  Каналы : 2 channels
                  Расположение каналов : Front: L R
                  Частота : 48.0 KHz
                  Битовая глубина : 16 bits
                  Метод сжатия : Lossy
                  Размер потока : 162 MiB (1%)
                  Заголовок : MVO - Культура
                  Язык : Russian
                  Default : Yes
                  Forced : Yes
                  Audio #2
                  Идентификатор : 3
                  Формат : AC-3
                  Формат/Информация : Audio Coding 3
                  Расширение режима : CM (complete main)
                  Параметр Endianness формата : Big
                  Идентификатор кодека : A_AC3
                  Продолжительность : 1h 57mn
                  Вид битрейта : Constant
                  Битрейт : 192 Kbps
                  Каналы : 2 channels
                  Расположение каналов : Front: L R
                  Частота : 48.0 KHz
                  Битовая глубина : 16 bits
                  Метод сжатия : Lossy
                  Размер потока : 162 MiB (1%)
                  Заголовок : AVO - Завгородний
                  Язык : Russian
                  Default : No
                  Forced : No
                  Audio #3
                  Идентификатор : 4
                  Формат : AC-3
                  Формат/Информация : Audio Coding 3
                  Расширение режима : CM (complete main)
                  Параметр Endianness формата : Big
                  Идентификатор кодека : A_AC3
                  Продолжительность : 1h 57mn
                  Вид битрейта : Constant
                  Битрейт : 192 Kbps
                  Каналы : 2 channels
                  Расположение каналов : Front: L R
                  Частота : 48.0 KHz
                  Битовая глубина : 16 bits
                  Метод сжатия : Lossy
                  Размер потока : 162 MiB (1%)
                  Заголовок : MVO - РТР
                  Язык : Russian
                  Default : No
                  Forced : No
                  Audio #4
                  Идентификатор : 5
                  Формат : AC-3
                  Формат/Информация : Audio Coding 3
                  Расширение режима : CM (complete main)
                  Параметр Endianness формата : Big
                  Идентификатор кодека : A_AC3
                  Продолжительность : 1h 57mn
                  Вид битрейта : Constant
                  Битрейт : 192 Kbps
                  Каналы : 2 channels
                  Расположение каналов : Front: L R
                  Частота : 48.0 KHz
                  Битовая глубина : 16 bits
                  Метод сжатия : Lossy
                  Размер потока : 162 MiB (1%)
                  Заголовок : AVO - Кузнецов
                  Язык : Russian
                  Default : No
                  Forced : No
                  Audio #5
                  Идентификатор : 6
                  Формат : DTS
                  Формат/Информация : Digital Theater Systems
                  Режим : 16
                  Параметр Endianness формата : Big
                  Идентификатор кодека : A_DTS
                  Продолжительность : 1h 57mn
                  Вид битрейта : Constant
                  Битрейт : 1 509 Kbps
                  Каналы : 2 channels
                  Расположение каналов : Front: L R
                  Частота : 48.0 KHz
                  Битовая глубина : 24 bits
                  Метод сжатия : Lossy
                  Размер потока : 1.24 GiB (10%)
                  Язык : English
                  Default : No
                  Forced : No
                  Text #1
                  Идентификатор : 7
                  Формат : UTF-8
                  Идентификатор кодека : S_TEXT/UTF8
                  Идентификатор кодека/Информация : UTF-8 Plain Text
                  Язык : Russian
                  Default : No
                  Forced : No
                  Text #2
                  Идентификатор : 8
                  Формат : UTF-8
                  Идентификатор кодека : S_TEXT/UTF8
                  Идентификатор кодека/Информация : UTF-8 Plain Text
                  Язык : Ukrainian
                  Default : No
                  Forced : No
                  Text #3
                  Идентификатор : 9
                  Формат : UTF-8
                  Идентификатор кодека : S_TEXT/UTF8
                  Идентификатор кодека/Информация : UTF-8 Plain Text
                  Язык : English
                  Default : No
                  Forced : No
                  Text #4
                  Идентификатор : 10
                  Формат : UTF-8
                  Идентификатор кодека : S_TEXT/UTF8
                  Идентификатор кодека/Информация : UTF-8 Plain Text
                  Заголовок : SDH
                  Язык : English
                  Default : No
                  Forced : No
                  Menu
                  00:00:00.000 : en:00:00:00.000
                  00:11:13.756 : en:00:11:13.756
                  00:21:15.065 : en:00:21:15.065
                  00:31:30.597 : en:00:31:30.597
                  00:40:36.267 : en:00:40:36.267
                  00:52:16.216 : en:00:52:16.216
                  01:01:35.317 : en:01:01:35.317
                  01:14:47.274 : en:01:14:47.274
                  01:24:59.094 : en:01:24:59.094
                  01:35:41.444 : en:01:35:41.444
                  01:44:55.915 : en:01:44:55.915
                  01:54:33.075 : en:01:54:33.075

                  Скриншоты




                  Показать сообщения:    

                  Текущее время: 11-Дек 11:01

                  Часовой пояс: UTC + 3


                  Вы не можете начинать темы
                  Вы не можете отвечать на сообщения
                  Вы не можете редактировать свои сообщения
                  Вы не можете удалять свои сообщения
                  Вы не можете голосовать в опросах
                  Вы не можете прикреплять файлы к сообщениям
                  Вы не можете скачивать файлы