(Classical) Edward Elgar - Enigma Variations, Cockaigne, Froissart - William Boughton, English Symphony Orchestra - 1989, FLAC (image+.cue) lossless


 

[Цитировать]

Edward Elgar - Enigma Variations and Overtures
Жанр: Classical
Страна-производитель диска: England
Год издания диска: 1989
Издатель (лейбл): Nimbus Records
Номер по каталогу: NI 5206
Дата записи: 1989
Аудиокодек: FLAC
Тип рипа: image+.cue
Битрейт аудио: lossless
Продолжительность: 01:00:26
Источник: собственный рип
Наличие сканов в содержимом раздачи: да
Треклист:
01. Cockaigne (In London Town) Op.40 (15:07)
Variations on an Original Theme (Enigma) Op.36
02. Enigma (1:34)
03. I (C.A.E) (1:47)
04. II (H.D.S-P.) (0:45)
05. III (R.B.T.) (1:24)
06. IV (W.M.B.) (0:30)
07. V (R.P.A.) (2:13)
08. VI (Yosbel) (1:18)
09. VII (Troyte) (1:03)
10. VIII (W.N.) (1:53)
11. IX (Nimrod) (4:16)
12. X (Dorabella) (2:25)
13. XI (G.R.S.) (0:59)
14. XII (B.G.N.) (2:21)
15. XIII (***) Rommanza (2:55)
16. XIV (E.D.U.) Finale (5:33)
17. Froissart, Op 19 (14:23)

Исполнители:
Conducted by William Boughton
English Symphony Orchestra

Лог создания рипа

Exact Audio Copy V1.0 beta 3 from 29. August 2011
Отчёт EAC об извлечении, выполненном 20. января 2016, 18:34
Elgar / Enigma Variations, Cockaigne, Froissart
Дисковод: hp CDDVDW TS-H653T Adapter: 5 ID: 0
Режим чтения : ДостоверностьИспользование точного потока : ДаОтключение кэша аудио : ДаИспользование указателей C2 : Нет
Коррекция смещения при чтении : 6Способность читать области Lead-in и Lead-out : НетЗаполнение пропущенных сэмплов тишиной : ДаУдаление блоков с тишиной в начале и конце : НетПри вычислениях CRC использовались нулевые сэмплы : ДаИнтерфейс : Встроенный Win32-интерфейс для Win NT/2000
Выходной формат : Пользовательский кодировщикВыбранный битрейт : 128 kBit/sКачество : ВысокийДобавление ID3-тега : НетУтилита сжатия : C:\Program Files\Exact Audio Copy\Flac\flac.exeДополнительные параметры : -V -8 -T "Date=%year%" -T "Genre=%genre%" %source%
TOC извлечённого CD
Трек | Старт | Длительность | Начальный сектор | Конечный сектор --------------------------------------------------------------------- 1 | 0:00.00 | 15:06.50 | 0 | 67999 2 | 15:06.50 | 1:34.02 | 68000 | 75051 3 | 16:40.52 | 1:47.33 | 75052 | 83109 4 | 18:28.10 | 0:45.00 | 83110 | 86484 5 | 19:13.10 | 1:24.00 | 86485 | 92784 6 | 20:37.10 | 0:30.27 | 92785 | 95061 7 | 21:07.37 | 2:13.10 | 95062 | 105046 8 | 23:20.47 | 1:17.58 | 105047 | 110879 9 | 24:38.30 | 1:03.15 | 110880 | 115619 10 | 25:41.45 | 1:53.30 | 115620 | 124124 11 | 27:35.00 | 4:16.00 | 124125 | 143324 12 | 31:51.00 | 2:25.00 | 143325 | 154199 13 | 34:16.00 | 0:59.12 | 154200 | 158636 14 | 35:15.12 | 2:21.00 | 158637 | 169211 15 | 37:36.12 | 2:55.00 | 169212 | 182336 16 | 40:31.12 | 5:32.38 | 182337 | 207274 17 | 46:03.50 | 14:22.50 | 207275 | 271974
Характеристики диапазона извлечения и сообщения об ошибках
Выбранный диапазон
Имя файла C:\Documents and Settings\biotox\Рабочий стол\Новая папка (2)\Elgar - Enigma Variations, Cockaigne, Froissart.wav
Пиковый уровень 87.0 % Скорость извлечения 4.7 X Качество диапазона 100.0 % CRC теста DCC5407F CRC копии DCC5407F Копирование... OK
Ошибок не произошло
AccurateRip: сводка
Трек 1 : извлечено точно (доверие 5) [365114C5] (AR v1)Трек 2 : извлечено точно (доверие 5) [36310D48] (AR v1)Трек 3 : извлечено точно (доверие 5) [81AC26AB] (AR v1)Трек 4 : извлечено точно (доверие 5) [3C401240] (AR v1)Трек 5 : извлечено точно (доверие 5) [06BF7EDA] (AR v1)Трек 6 : извлечено точно (доверие 5) [52288A1D] (AR v1)Трек 7 : извлечено точно (доверие 5) [14F6CDD4] (AR v1)Трек 8 : извлечено точно (доверие 5) [C7630DC8] (AR v1)Трек 9 : извлечено точно (доверие 5) [5B777F66] (AR v1)Трек 10 : извлечено точно (доверие 5) [68EE040F] (AR v1)Трек 11 : извлечено точно (доверие 5) [C503536F] (AR v1)Трек 12 : извлечено точно (доверие 5) [4937FAEC] (AR v1)Трек 13 : извлечено точно (доверие 5) [A0BCCFA4] (AR v1)Трек 14 : извлечено точно (доверие 5) [76FA1819] (AR v1)Трек 15 точность не определена (достоверность 5) [7C19BF9E], AccurateRip вернул [D2143C0D] (AR v2)Трек 16 : извлечено точно (доверие 5) [9AB66725] (AR v1)Трек 17 : извлечено точно (доверие 5) [635C7463] (AR v1)
16 трек(и) скопированы точно 1 трек(и) не удалось проверить на точность
Некоторые треки не прошли проверку на точность
Конец отчёта
==== Контрольная сумма отчёта 40CD86B74913F5B4A020249941A55F4C4CAD3D2C94A4E58C4782C66FC6FEA42B ====

Замер динамического диапазона

foobar2000 1.2.9 / Замер динамического диапазона (DR) 1.1.1
Дата отчёта: 2016-01-20 20:32:13
--------------------------------------------------------------------------------
Анализ: Elgar / Enigma Variations, Cockaigne, Froissart
--------------------------------------------------------------------------------
DR Пики RMS Продолжительность трека
--------------------------------------------------------------------------------
DR17 -1.20 дБ -25.37 дБ 15:07 01-Cockaigne, Op 40
DR10 -22.65 дБ -39.37 дБ 1:34 02-Enigma, Op 36
DR13 -11.18 дБ -32.51 дБ 1:47 03-C.A.E
DR11 -20.20 дБ -39.07 дБ 0:45 04-H.D.S-P.
DR13 -13.89 дБ -34.99 дБ 1:24 05-R.B.T.
DR12 -7.73 дБ -25.32 дБ 0:30 06-W.M.B.
DR12 -17.83 дБ -34.48 дБ 2:13 07-R.P.A.
DR11 -14.08 дБ -37.08 дБ 1:18 08-Yosbel
DR13 -9.20 дБ -26.05 дБ 1:03 09-Troyte
DR12 -17.63 дБ -35.51 дБ 1:53 10-W.N.
DR13 -4.83 дБ -28.24 дБ 4:16 11-Nimrod
DR12 -21.16 дБ -40.79 дБ 2:25 12-Dorabella
DR13 -9.33 дБ -25.67 дБ 0:59 13-G.R.S.
DR13 -15.26 дБ -34.44 дБ 2:21 14-B.G.N.
DR14 -13.33 дБ -37.69 дБ 2:55 15-Rommanza
DR15 -2.53 дБ -22.75 дБ 5:33 16-E.D.U. Finale
DR16 -5.85 дБ -28.16 дБ 14:23 17-Froissart, Op 19
--------------------------------------------------------------------------------
Количество треков: 17
Реальные значения DR: DR13
Частота: 44100 Гц
Каналов: 2
Разрядность: 16
Битрейт: 486 кбит/с
Кодек: FLAC
================================================================================



Показать сообщения:    

Текущее время: 06-Дек 11:12

Часовой пояс: UTC + 3


Вы не можете начинать темы
Вы не можете отвечать на сообщения
Вы не можете редактировать свои сообщения
Вы не можете удалять свои сообщения
Вы не можете голосовать в опросах
Вы не можете прикреплять файлы к сообщениям
Вы не можете скачивать файлы