(Liturgy) Armenian Liturgy. Komitas (Tchekidjian, State Choir of Armenia) (Армянская Литургия. Комитас) - 2001, FLAC (image+.cue), lossless


Статистика раздачи [Обновить пиров]
Размер:  243 MB   |    Зарегистрирован:  10 месяцев 15 дней   |    Скачан:  0 раз

Полного источника не было: Никогда

 
   
 
 
 

[Цитировать]

Armenian Liturgy. Komitas (Tchekidjian, State Choir of Armenia) (Армянская Литургия. Комитас)
Жанр: Liturgy
Год выпуска диска: 2001
Производитель диска: © + ® Ohannes Tchekidjian. Canada
Аудио кодек: FLAC
Тип рипа: tracks+.cue
Битрейт аудио: lossless
Продолжительность: 64:19
Composer: Komitas
Conductor: Ohannes Tchekidjian
Performer: State Choir of Armenia
Праздничная Пасхальная Литургия

Трэклист:

1. Khorurd Khorin (2:27)
2. Recit. Thagavor erknavor (1:08)
3. Barekhosutiamb (3:01)
4. Recit. Barekhosutiamb (0:52)
5. Recit. Ev ynd hogvuid (0:11)
6. Recit. Arachi Kho Ter (0:15)
7. Surb Astuats, vor hariar (1:03)
8. Recit. Vasn…Ter voghormia (2:52)
9. Recit. Hishia, Ter (0:43)
10. Recit. Ev ynd hogvuid (0:11)
11. Recit. Pharkh Khez (0:15)
12. Recit. Ase Astvats (0:16)
13. Recit. Pharkh Khez (0:37)
14. Recit. Ter voghormia (0:19)
15. Recit. Keco, Ter (1:17)
16. Recit. Ev ynd hogvuid (0:10)
17. Recit. Arachi Kho Ter (0:15)
18. Recit. Amen (0:19)
19. Marmin terunakan (1:13)
20. Hreshtakain (3:18)
21. Recit. Ter voghormia (0:16)
22. Recit. Keco, Ter (0:24)
23. Recit. Ev ynd hogvuid (0:11)
24. Recit. Arachi Qo Ter (0:16)
25. Khristos i metc mer (1:10)
26. Recit. Ver hambarnambkh (0:43)
27. Recit. Ar Khez Astvats (0:17)
28. Recit. Voghormutiun (0:28)
29. Recit. Amen. Ev ynd hogvuid (0:33)
30. Recit. Unimkh (0:24)
31. Recit. Arjan ev irav (0:25)
32. Surb, Surb, Surb (2:32)
33. Recit. Amen (0:20)
34. Amen. Hair erknain (1:06)
35. Hamenaini (1:22)
36. Recit. Ev ynd hogvuid (0:11)
37. Arachi Qo, Ter. Vordi Astutso (1:08)
38. Hogi Astuco (2:10)
39. Recit. Hishea, Ter (0:14)
40. Recit. Hishea, Ter (0:15)
41. Recit. Hishea, Ter (0:16)
42. Recit. Pharkh Harutean Kho (0:20)
43. Recit. Hishea, Ter (0:18)
44. Recit. Hishea, Ter (0:16)
45. Recit. Hishea, Ter (0:17)
46. Recit. Hishea, Ter (0:26)
47. Havatamkh. Gohutun ev parabanitiun (1:51)
48. Recit. Amen. Ev ynd hogvuid (0:17)
49. Recit. Ter voghormia (0:20)
50. Recit. Ter voghormia (0:16)
51. Recit. Ter voghormia (0:21)
52. Recit. Ter voghormia (0:20)
53. Recit. Keco, Ter voghormia (0:17)
54. Recit. Hishea, Ter voghormia (0:46)
55. Hair mer (1:37)
56. Recit. Ev ynd hogvuid (0:09)
57. Recit. Arachi Kho Ter (0:12)
58. Miain Surb (1:00)
59. Recit. Amen (0:47)
60. Amen. Hair Surb (2:14)
61. Ter voghormia (3:14)
62. Ynkal Ter (0:26)
63. Orhnial e Astvatc (3:21)
64. Recit. Astvats Mer (0:55)
65. Lcaq i Barutiamb Khoc (1:41)
66. Recit. Ter voghormia (0:13)
67. Gohanamb zKhen (3:10)
68. Orhnial e Astvats (0:18)
69. Recit. Amen (0:21)
70. Recit. Amen (0:20)
71. Recit. Amen (0:17)
72. Recit. Amen (0:20)
73. Yeghici anun Tearn (1:28)
74. Recit. Yev ynd hognuim khum (0:11)
75. Recit. Pharq Khez (0:17)
76. Recit. Ase... (0:20)

log EAC

Exact Audio Copy V1.0 beta 3 from 29. August 2011
EAC extraction logfile from 20. January 2016, 23:39
Tchekidjian, State Choir of Armenia / Armenian Liturgy. Komitas
Used drive : PIONEER DVD-RW DVR-221L Adapter: 2 ID: 0
Read mode : SecureUtilize accurate stream : YesDefeat audio cache : YesMake use of C2 pointers : No
Read offset correction : 6Overread into Lead-In and Lead-Out : NoFill up missing offset samples with silence : YesDelete leading and trailing silent blocks : NoNull samples used in CRC calculations : YesUsed interface : Installed external ASPI interfaceGap handling : Appended to previous track
Used output format : User Defined EncoderSelected bitrate : 768 kBit/sQuality : HighAdd ID3 tag : NoCommand line compressor : C:\Program Files\Exact Audio Copy\Flac\flac.exeAdditional command line options : -6 -V -T "ARTIST=%artist%" -T "TITLE=%title%" -T "ALBUM=%albumtitle%" -T "DATE=%year%" -T "TRACKNUMBER=%tracknr%" -T "GENRE=%genre%" -T "COMMENT=%comment%" -T "ALBUMARTIST=%albuminterpret%" -T "COMPOSER=%composer%" -T "DISCNUMBER=%cdnumber%" -T "TOTALDISCS=%totalcds%" -T "TOTALTRACKS=%numtracks%" %source% -o %dest%
TOC of the extracted CD
Track | Start | Length | Start sector | End sector --------------------------------------------------------- 1 | 0:00.00 | 2:27.73 | 0 | 11097 2 | 2:27.73 | 1:08.21 | 11098 | 16218 3 | 3:36.19 | 3:01.67 | 16219 | 29860 4 | 6:38.11 | 0:52.20 | 29861 | 33780 5 | 7:30.31 | 0:11.52 | 33781 | 34657 6 | 7:42.08 | 0:15.31 | 34658 | 35813 7 | 7:57.39 | 1:03.30 | 35814 | 40568 8 | 9:00.69 | 2:52.07 | 40569 | 53475 9 | 11:53.01 | 0:43.19 | 53476 | 56719 10 | 12:36.20 | 0:11.18 | 56720 | 57562 11 | 12:47.38 | 0:15.69 | 57563 | 58756 12 | 13:03.32 | 0:16.66 | 58757 | 60022 13 | 13:20.23 | 0:37.30 | 60023 | 62827 14 | 13:57.53 | 0:19.29 | 62828 | 64281 15 | 14:17.07 | 1:17.67 | 64282 | 70123 16 | 15:34.74 | 0:10.22 | 70124 | 70895 17 | 15:45.21 | 0:15.60 | 70896 | 72080 18 | 16:01.06 | 0:19.19 | 72081 | 73524 19 | 16:20.25 | 1:13.74 | 73525 | 79073 20 | 17:34.24 | 3:18.51 | 79074 | 93974 21 | 20:53.00 | 0:16.10 | 93975 | 95184 22 | 21:09.10 | 0:24.61 | 95185 | 97045 23 | 21:33.71 | 0:11.57 | 97046 | 97927 24 | 21:45.53 | 0:16.20 | 97928 | 99147 25 | 22:01.73 | 1:10.73 | 99148 | 104470 26 | 23:12.71 | 0:43.44 | 104471 | 107739 27 | 23:56.40 | 0:17.39 | 107740 | 109053 28 | 24:14.04 | 0:28.12 | 109054 | 111165 29 | 24:42.16 | 0:33.41 | 111166 | 113681 30 | 25:15.57 | 0:24.23 | 113682 | 115504 31 | 25:40.05 | 0:25.69 | 115505 | 117448 32 | 26:05.74 | 2:32.11 | 117449 | 128859 33 | 28:38.10 | 0:20.35 | 128860 | 130394 34 | 28:58.45 | 1:06.73 | 130395 | 135417 35 | 30:05.43 | 1:22.73 | 135418 | 141640 36 | 31:28.41 | 0:11.14 | 141641 | 142479 37 | 31:39.55 | 1:08.19 | 142480 | 147598 38 | 32:47.74 | 2:10.14 | 147599 | 157362 39 | 34:58.13 | 0:14.58 | 157363 | 158470 40 | 35:12.71 | 0:15.38 | 158471 | 159633 41 | 35:28.34 | 0:16.73 | 159634 | 160906 42 | 35:45.32 | 0:20.62 | 160907 | 162468 43 | 36:06.19 | 0:18.03 | 162469 | 163821 44 | 36:24.22 | 0:16.66 | 163822 | 165087 45 | 36:41.13 | 0:17.21 | 165088 | 166383 46 | 36:58.34 | 0:26.07 | 166384 | 168340 47 | 37:24.41 | 1:51.60 | 168341 | 176725 48 | 39:16.26 | 0:17.38 | 176726 | 178038 49 | 39:33.64 | 0:20.00 | 178039 | 179538 50 | 39:53.64 | 0:16.63 | 179539 | 180801 51 | 40:10.52 | 0:21.23 | 180802 | 182399 52 | 40:32.00 | 0:20.52 | 182400 | 183951 53 | 40:52.52 | 0:17.28 | 183952 | 185254 54 | 41:10.05 | 0:46.10 | 185255 | 188714 55 | 41:56.15 | 1:37.16 | 188715 | 196005 56 | 43:33.31 | 0:09.28 | 196006 | 196708 57 | 43:42.59 | 0:12.51 | 196709 | 197659 58 | 43:55.35 | 1:00.06 | 197660 | 202165 59 | 44:55.41 | 0:47.53 | 202166 | 205743 60 | 45:43.19 | 2:14.55 | 205744 | 215848 61 | 47:57.74 | 3:14.54 | 215849 | 230452 62 | 51:12.53 | 0:26.00 | 230453 | 232402 63 | 51:38.53 | 3:21.67 | 232403 | 247544 64 | 55:00.45 | 0:55.09 | 247545 | 251678 65 | 55:55.54 | 1:41.08 | 251679 | 259261 66 | 57:36.62 | 0:13.33 | 259262 | 260269 67 | 57:50.20 | 3:10.47 | 260270 | 274566 68 | 61:00.67 | 0:18.35 | 274567 | 275951 69 | 61:19.27 | 0:21.46 | 275952 | 277572 70 | 61:40.73 | 0:20.21 | 277573 | 279093 71 | 62:01.19 | 0:17.62 | 279094 | 280430 72 | 62:19.06 | 0:20.31 | 280431 | 281961 73 | 62:39.37 | 1:28.48 | 281962 | 288609 74 | 64:08.10 | 0:11.37 | 288610 | 289471 75 | 64:19.47 | 0:17.00 | 289472 | 290746 76 | 64:36.47 | 0:20.19 | 290747 | 292265
Track 1
Filename D:\EAC\01 - Khorurd Khorin.wav
Pre-gap length 0:00:02.00
Peak level 10.5 % Extraction speed 4.0 X Track quality 100.0 % Test CRC 0BD1974A Copy CRC 0BD1974A Accurately ripped (confidence 1) [66C630A1] (AR v1) Copy OK
Track 2
Filename D:\EAC\02 - Recit. Thagavor erknavor.wav
Peak level 29.7 % Extraction speed 3.4 X Track quality 100.0 % Test CRC 9010B2D4 Copy CRC 9010B2D4 Accurately ripped (confidence 1) [57D6725B] (AR v1) Copy OK
Track 3
Filename D:\EAC\03 - Barekhosutiamb.wav
Peak level 18.0 % Extraction speed 3.8 X Track quality 99.9 % Test CRC 85CB1AD0 Copy CRC 85CB1AD0 Accurately ripped (confidence 1) [27827707] (AR v1) Copy OK
Track 4
Filename D:\EAC\04 - Recit. Barekhosutiamb.wav
Peak level 37.6 % Extraction speed 3.6 X Track quality 100.0 % Test CRC 7DF9DD74 Copy CRC 7DF9DD74 Accurately ripped (confidence 1) [F2685C2B] (AR v1) Copy OK
Track 5
Filename D:\EAC\05 - Recit. Ev ynd hogvuid.wav
Peak level 7.5 % Extraction speed 1.4 X Track quality 100.0 % Test CRC 16BD9D0F Copy CRC 16BD9D0F Accurately ripped (confidence 1) [5F0498D5] (AR v1) Copy OK
Track 6
Filename D:\EAC\06 - Recit. Arachi Kho Ter.wav
Peak level 3.8 % Extraction speed 1.8 X Track quality 100.0 % Test CRC 0F911544 Copy CRC 0F911544 Accurately ripped (confidence 1) [CA35D765] (AR v1) Copy OK
Track 7
Filename D:\EAC\07 - Surb Astuats, vor hariar.wav
Peak level 13.7 % Extraction speed 2.3 X Track quality 99.8 % Test CRC 054B8E50 Copy CRC 054B8E50 Accurately ripped (confidence 1) [AD4345AF] (AR v1) Copy OK
Track 8
Filename D:\EAC\08 - Recit. Vasn…Ter voghormia.wav
Peak level 16.6 % Extraction speed 4.9 X Track quality 100.0 % Test CRC 65F9C5AB Copy CRC 65F9C5AB Accurately ripped (confidence 1) [9153347B] (AR v1) Copy OK
Track 9
Filename D:\EAC\09 - Recit. Hishia, Ter.wav
Peak level 12.8 % Extraction speed 3.6 X Track quality 100.0 % Test CRC E5789195 Copy CRC E5789195 Accurately ripped (confidence 1) [3589F091] (AR v1) Copy OK
Track 10
Filename D:\EAC\10 - Recit. Ev ynd hogvuid.wav
Peak level 7.1 % Extraction speed 1.3 X Track quality 100.0 % Test CRC C2732062 Copy CRC C2732062 Accurately ripped (confidence 1) [BBF253C0] (AR v1) Copy OK
Track 11
Filename D:\EAC\11 - Recit. Pharkh Khez.wav
Peak level 19.9 % Extraction speed 0.9 X Track quality 99.3 % Test CRC D410EB1A Copy CRC D410EB1A Accurately ripped (confidence 1) [CD56F6AC] (AR v1) Copy OK
Track 12
Filename D:\EAC\12 - Recit. Ase Astvats.wav
Peak level 6.6 % Extraction speed 1.9 X Track quality 100.0 % Test CRC C7FAED74 Copy CRC C7FAED74 Accurately ripped (confidence 1) [3453C142] (AR v1) Copy OK
Track 13
Filename D:\EAC\13 - Recit. Pharkh Khez.wav
Peak level 65.6 % Extraction speed 3.2 X Track quality 100.0 % Test CRC 40E26D44 Copy CRC 40E26D44 Accurately ripped (confidence 1) [2BAD662D] (AR v1) Copy OK
Track 14
Filename D:\EAC\14 - Recit. Ter voghormia.wav
Peak level 7.6 % Extraction speed 2.3 X Track quality 100.0 % Test CRC 92A9D996 Copy CRC 92A9D996 Accurately ripped (confidence 1) [73766451] (AR v1) Copy OK
Track 15
Filename D:\EAC\15 - Recit. Keco, Ter.wav
Peak level 16.9 % Extraction speed 4.5 X Track quality 100.0 % Test CRC 9FC32F3C Copy CRC 9FC32F3C Accurately ripped (confidence 1) [FB451A90] (AR v1) Copy OK
Track 16
Filename D:\EAC\16 - Recit. Ev ynd hogvuid.wav
Peak level 5.4 % Extraction speed 0.6 X Track quality 98.9 % Test CRC D51AE43E Copy CRC D51AE43E Accurately ripped (confidence 1) [7A34D4F0] (AR v1) Copy OK
Track 17
Filename D:\EAC\17 - Recit. Arachi Kho Ter.wav
Peak level 2.9 % Extraction speed 1.9 X Track quality 100.0 % Test CRC 6AF075A7 Copy CRC 6AF075A7 Accurately ripped (confidence 1) [C4367823] (AR v1) Copy OK
Track 18
Filename D:\EAC\18 - Recit. Amen.wav
Peak level 6.7 % Extraction speed 1.1 X Track quality 99.4 % Test CRC DC19DACA Copy CRC DC19DACA Accurately ripped (confidence 1) [4BCF3FBB] (AR v1) Copy OK
Track 19
Filename D:\EAC\19 - Marmin terunakan.wav
Peak level 12.8 % Extraction speed 2.9 X Track quality 99.8 % Test CRC FC9EBCB1 Copy CRC FC9EBCB1 Accurately ripped (confidence 1) [8FFA03C7] (AR v1) Copy OK
Track 20
Filename D:\EAC\20 - Hreshtakain.wav
Peak level 19.3 % Extraction speed 5.7 X Track quality 100.0 % Test CRC 2F7DFDE9 Copy CRC 2F7DFDE9 Accurately ripped (confidence 1) [8D06791D] (AR v1) Copy OK
Track 21
Filename D:\EAC\21 - Recit. Ter voghormia.wav
Peak level 10.9 % Extraction speed 2.1 X Track quality 100.0 % Test CRC 70ED9EA2 Copy CRC 70ED9EA2 Accurately ripped (confidence 1) [BD4BAF17] (AR v1) Copy OK
Track 22
Filename D:\EAC\22 - Recit. Keco, Ter.wav
Peak level 12.9 % Extraction speed 2.9 X Track quality 100.0 % Test CRC DECE004E Copy CRC DECE004E Accurately ripped (confidence 1) [0E7C1169] (AR v1) Copy OK
Track 23
Filename D:\EAC\23 - Recit. Ev ynd hogvuid.wav
Peak level 3.2 % Extraction speed 1.3 X Track quality 100.0 % Test CRC 0A459903 Copy CRC 0A459903 Accurately ripped (confidence 1) [0FF05BF2] (AR v1) Copy OK
Track 24
Filename D:\EAC\24 - Recit. Arachi Qo Ter.wav
Peak level 3.0 % Extraction speed 1.0 X Track quality 99.3 % Test CRC E11180ED Copy CRC E11180ED Accurately ripped (confidence 1) [8BE2D885] (AR v1) Copy OK
Track 25
Filename D:\EAC\25 - Khristos i metc mer.wav
Peak level 44.8 % Extraction speed 4.5 X Track quality 100.0 % Test CRC C27BCCB3 Copy CRC C27BCCB3 Accurately ripped (confidence 1) [50D5049D] (AR v1) Copy OK
Track 26
Filename D:\EAC\26 - Recit. Ver hambarnambkh.wav
Peak level 59.9 % Extraction speed 4.2 X Track quality 100.0 % Test CRC 120BE544 Copy CRC 120BE544 Accurately ripped (confidence 1) [B1892773] (AR v1) Copy OK
Track 27
Filename D:\EAC\27 - Recit. Ar Khez Astvats.wav
Peak level 5.1 % Extraction speed 2.4 X Track quality 100.0 % Test CRC 69B6DBE9 Copy CRC 69B6DBE9 Accurately ripped (confidence 1) [B4D2D839] (AR v1) Copy OK
Track 28
Filename D:\EAC\28 - Recit. Voghormutiun.wav
Peak level 4.9 % Extraction speed 3.0 X Track quality 100.0 % Test CRC 942FE8DD Copy CRC 942FE8DD Accurately ripped (confidence 1) [F801C1C6] (AR v1) Copy OK
Track 29
Filename D:\EAC\29 - Recit. Amen. Ev ynd hogvuid.wav
Peak level 8.7 % Extraction speed 2.0 X Track quality 99.6 % Test CRC B9CD2234 Copy CRC B9CD2234 Accurately ripped (confidence 1) [4EF744E4] (AR v1) Copy OK
Track 30
Filename D:\EAC\30 - Recit. Unimkh.wav
Peak level 12.8 % Extraction speed 3.2 X Track quality 100.0 % Test CRC A43926D7 Copy CRC A43926D7 Accurately ripped (confidence 1) [20ED00BA] (AR v1) Copy OK
Track 31
Filename D:\EAC\31 - Recit. Arjan ev irav.wav
Peak level 13.8 % Extraction speed 1.6 X Track quality 99.5 % Test CRC 93B9CEFD Copy CRC 93B9CEFD Accurately ripped (confidence 1) [1B02172C] (AR v1) Copy OK
Track 32
Filename D:\EAC\32 - Surb, Surb, Surb.wav
Peak level 33.5 % Extraction speed 6.4 X Track quality 100.0 % Test CRC 092DF1FD Copy CRC 092DF1FD Accurately ripped (confidence 1) [9083F782] (AR v1) Copy OK
Track 33
Filename D:\EAC\33 - Recit. Amen.wav
Peak level 7.7 % Extraction speed 2.7 X Track quality 100.0 % Test CRC 58BB2D8C Copy CRC 58BB2D8C Accurately ripped (confidence 1) [4C4C202F] (AR v1) Copy OK
Track 34
Filename D:\EAC\34 - Amen. Hair erknain.wav
Peak level 41.0 % Extraction speed 5.1 X Track quality 100.0 % Test CRC 5A138B29 Copy CRC 5A138B29 Accurately ripped (confidence 1) [D743A232] (AR v1) Copy OK
Track 35
Filename D:\EAC\35 - Hamenaini.wav
Peak level 47.2 % Extraction speed 3.8 X Track quality 99.8 % Test CRC F938587D Copy CRC F938587D Accurately ripped (confidence 1) [B9AE8C5B] (AR v1) Copy OK
Track 36
Filename D:\EAC\36 - Recit. Ev ynd hogvuid.wav
Peak level 8.6 % Extraction speed 1.8 X Track quality 100.0 % Test CRC 3BD26C43 Copy CRC 3BD26C43 Accurately ripped (confidence 1) [7F447D08] (AR v1) Copy OK
Track 37
Filename D:\EAC\37 - Arachi Qo, Ter. Vordi Astutso.wav
Peak level 32.4 % Extraction speed 5.2 X Track quality 100.0 % Test CRC EC462C89 Copy CRC EC462C89 Accurately ripped (confidence 1) [BDA7F139] (AR v1) Copy OK
Track 38
Filename D:\EAC\38 - Hogi Astuco.wav
Peak level 36.5 % Extraction speed 6.9 X Track quality 100.0 % Test CRC 5D889A92 Copy CRC 5D889A92 Accurately ripped (confidence 1) [002B2BF2] (AR v1) Copy OK
Track 39
Filename D:\EAC\39 - Recit. Hishea, Ter.wav
Peak level 7.7 % Extraction speed 2.3 X Track quality 100.0 % Test CRC 70595CAA Copy CRC 70595CAA Accurately ripped (confidence 1) [1A65E874] (AR v1) Copy OK
Track 40
Filename D:\EAC\40 - Recit. Hishea, Ter.wav
Peak level 5.9 % Extraction speed 2.4 X Track quality 100.0 % Test CRC 638BF43E Copy CRC 638BF43E Accurately ripped (confidence 1) [C1F1CFEB] (AR v1) Copy OK
Track 41
Filename D:\EAC\41 - Recit. Hishea, Ter.wav
Peak level 5.5 % Extraction speed 2.8 X Track quality 100.0 % Test CRC 1FCE60C9 Copy CRC 1FCE60C9 Accurately ripped (confidence 1) [599D50EC] (AR v1) Copy OK
Track 42
Filename D:\EAC\42 - Recit. Pharkh Harutean Kho.wav
Peak level 30.2 % Extraction speed 2.9 X Track quality 100.0 % Test CRC 49BAB9D6 Copy CRC 49BAB9D6 Accurately ripped (confidence 1) [0C9B9F75] (AR v1) Copy OK
Track 43
Filename D:\EAC\43 - Recit. Hishea, Ter.wav
Peak level 10.1 % Extraction speed 2.9 X Track quality 100.0 % Test CRC E29C096B Copy CRC E29C096B Accurately ripped (confidence 1) [DA55FC77] (AR v1) Copy OK
Track 44
Filename D:\EAC\44 - Recit. Hishea, Ter.wav
Peak level 5.1 % Extraction speed 2.5 X Track quality 100.0 % Test CRC A514C162 Copy CRC A514C162 Accurately ripped (confidence 1) [B2C64E04] (AR v1) Copy OK
Track 45
Filename D:\EAC\45 - Recit. Hishea, Ter.wav
Peak level 15.7 % Extraction speed 1.3 X Track quality 99.3 % Test CRC 78536296 Copy CRC 78536296 Accurately ripped (confidence 1) [84F98356] (AR v1) Copy OK
Track 46
Filename D:\EAC\46 - Recit. Hishea, Ter.wav
Peak level 24.8 % Extraction speed 3.6 X Track quality 100.0 % Test CRC 6ECBD4B2 Copy CRC 6ECBD4B2 Accurately ripped (confidence 1) [84020FBC] (AR v1) Copy OK
Track 47
Filename D:\EAC\47 - Havatamkh. Gohutun ev parabanitiun.wav
Peak level 29.1 % Extraction speed 6.6 X Track quality 100.0 % Test CRC 5557C96A Copy CRC 5557C96A Accurately ripped (confidence 1) [472B0031] (AR v1) Copy OK
Track 48
Filename D:\EAC\48 - Recit. Amen. Ev ynd hogvuid.wav
Peak level 14.2 % Extraction speed 2.7 X Track quality 100.0 % Test CRC 35B160B9 Copy CRC 35B160B9 Accurately ripped (confidence 1) [5CCEF114] (AR v1) Copy OK
Track 49
Filename D:\EAC\49 - Recit. Ter voghormia.wav
Peak level 29.1 % Extraction speed 3.3 X Track quality 100.0 % Test CRC DF899E1A Copy CRC DF899E1A Accurately ripped (confidence 1) [C12A1206] (AR v1) Copy OK
Track 50
Filename D:\EAC\50 - Recit. Ter voghormia.wav
Peak level 63.6 % Extraction speed 2.7 X Track quality 100.0 % Test CRC 76DFCC8D Copy CRC 76DFCC8D Accurately ripped (confidence 1) [C5CA5051] (AR v1) Copy OK
Track 51
Filename D:\EAC\51 - Recit. Ter voghormia.wav
Peak level 28.4 % Extraction speed 3.3 X Track quality 100.0 % Test CRC 4EAB8643 Copy CRC 4EAB8643 Accurately ripped (confidence 1) [670A8599] (AR v1) Copy OK
Track 52
Filename D:\EAC\52 - Recit. Ter voghormia.wav
Peak level 29.9 % Extraction speed 3.2 X Track quality 100.0 % Test CRC DD204C39 Copy CRC DD204C39 Accurately ripped (confidence 1) [F1089CE9] (AR v1) Copy OK
Track 53
Filename D:\EAC\53 - Recit. Keco, Ter voghormia.wav
Peak level 56.8 % Extraction speed 2.9 X Track quality 100.0 % Test CRC D31C4125 Copy CRC D31C4125 Accurately ripped (confidence 1) [532F9F5D] (AR v1) Copy OK
Track 54
Filename D:\EAC\54 - Recit. Hishea, Ter voghormia.wav
Peak level 77.8 % Extraction speed 2.9 X Track quality 99.7 % Test CRC A1ACE633 Copy CRC A1ACE633 Accurately ripped (confidence 1) [E3809D43] (AR v1) Copy OK
Track 55
Filename D:\EAC\55 - Hair mer.wav
Peak level 25.4 % Extraction speed 6.7 X Track quality 100.0 % Test CRC 9172F97B Copy CRC 9172F97B Accurately ripped (confidence 1) [911FE180] (AR v1) Copy OK
Track 56
Filename D:\EAC\56 - Recit. Ev ynd hogvuid.wav
Peak level 5.4 % Extraction speed 1.9 X Track quality 100.0 % Test CRC 3FB9A675 Copy CRC 3FB9A675 Accurately ripped (confidence 1) [4982C9DF] (AR v1) Copy OK
Track 57
Filename D:\EAC\57 - Recit. Arachi Kho Ter.wav
Peak level 9.5 % Extraction speed 2.4 X Track quality 100.0 % Test CRC 912345BF Copy CRC 912345BF Accurately ripped (confidence 1) [8CFE9D2E] (AR v1) Copy OK
Track 58
Filename D:\EAC\58 - Miain Surb.wav
Peak level 29.7 % Extraction speed 3.6 X Track quality 99.8 % Test CRC 0FA6DFD4 Copy CRC 0FA6DFD4 Accurately ripped (confidence 1) [31085FA3] (AR v1) Copy OK
Track 59
Filename D:\EAC\59 - Recit. Amen.wav
Peak level 15.7 % Extraction speed 5.2 X Track quality 100.0 % Test CRC E7DCFC5F Copy CRC E7DCFC5F Accurately ripped (confidence 1) [8C8A9496] (AR v1) Copy OK
Track 60
Filename D:\EAC\60 - Amen. Hair Surb.wav
Peak level 71.3 % Extraction speed 7.1 X Track quality 100.0 % Test CRC FC07B1FE Copy CRC FC07B1FE Accurately ripped (confidence 1) [CBC62C2B] (AR v1) Copy OK
Track 61
Filename D:\EAC\61 - Ter voghormia.wav
Peak level 46.2 % Extraction speed 8.2 X Track quality 100.0 % Test CRC A241A325 Copy CRC A241A325 Accurately ripped (confidence 1) [15FA9929] (AR v1) Copy OK
Track 62
Filename D:\EAC\62 - Ynkal Ter.wav
Peak level 36.6 % Extraction speed 4.2 X Track quality 100.0 % Test CRC F8C9D8E1 Copy CRC F8C9D8E1 Accurately ripped (confidence 1) [1DCA5AB1] (AR v1) Copy OK
Track 63
Filename D:\EAC\63 - Orhnial e Astvatc.wav
Peak level 81.1 % Extraction speed 8.7 X Track quality 100.0 % Test CRC 267D4B09 Copy CRC 267D4B09 Accurately ripped (confidence 1) [82BCF6D1] (AR v1) Copy OK
Track 64
Filename D:\EAC\64 - Recit. Astvats Mer.wav
Peak level 23.0 % Extraction speed 3.6 X Track quality 99.8 % Test CRC D10149A3 Copy CRC D10149A3 Accurately ripped (confidence 1) [E9F4C300] (AR v1) Copy OK
Track 65
Filename D:\EAC\65 - Lcaq i Barutiamb Khoc.wav
Peak level 27.0 % Extraction speed 7.3 X Track quality 100.0 % Test CRC 59DCF3D8 Copy CRC 59DCF3D8 Accurately ripped (confidence 1) [3C5F7454] (AR v1) Copy OK
Track 66
Filename D:\EAC\66 - Recit. Ter voghormia.wav
Peak level 15.0 % Extraction speed 2.8 X Track quality 100.0 % Test CRC 030FB377 Copy CRC 030FB377 Accurately ripped (confidence 1) [158C42CC] (AR v1) Copy OK
Track 67
Filename D:\EAC\67 - Gohanamb zKhen.wav
Peak level 25.3 % Extraction speed 9.0 X Track quality 100.0 % Test CRC C6461B96 Copy CRC C6461B96 Accurately ripped (confidence 1) [DDB7E30E] (AR v1) Copy OK
Track 68
Filename D:\EAC\68 - Orhnial e Astvats.wav
Peak level 45.2 % Extraction speed 3.0 X Track quality 100.0 % Test CRC 4B05E6E7 Copy CRC 4B05E6E7 Accurately ripped (confidence 1) [8F4AE026] (AR v1) Copy OK
Track 69
Filename D:\EAC\69 - Recit. Amen.wav
Peak level 20.0 % Extraction speed 3.8 X Track quality 100.0 % Test CRC 6408024A Copy CRC 6408024A Accurately ripped (confidence 1) [65A38331] (AR v1) Copy OK
Track 70
Filename D:\EAC\70 - Recit. Amen.wav
Peak level 17.5 % Extraction speed 1.8 X Track quality 99.4 % Test CRC E3557100 Copy CRC E3557100 Accurately ripped (confidence 1) [9C160892] (AR v1) Copy OK
Track 71
Filename D:\EAC\71 - Recit. Amen.wav
Peak level 14.1 % Extraction speed 3.3 X Track quality 100.0 % Test CRC 7680D3D5 Copy CRC 7680D3D5 Accurately ripped (confidence 1) [56735784] (AR v1) Copy OK
Track 72
Filename D:\EAC\72 - Recit. Amen.wav
Peak level 25.5 % Extraction speed 3.5 X Track quality 100.0 % Test CRC F5A861F7 Copy CRC F5A861F7 Accurately ripped (confidence 1) [580E90AC] (AR v1) Copy OK
Track 73
Filename D:\EAC\73 - Yeghici anun Tearn.wav
Peak level 57.0 % Extraction speed 4.9 X Track quality 99.8 % Test CRC 563E8F7A Copy CRC 563E8F7A Accurately ripped (confidence 1) [98365E83] (AR v1) Copy OK
Track 74
Filename D:\EAC\74 - Recit. Yev ynd hognuim khum.wav
Peak level 7.9 % Extraction speed 2.4 X Track quality 100.0 % Test CRC 2B701BDB Copy CRC 2B701BDB Accurately ripped (confidence 1) [9D777F10] (AR v1) Copy OK
Track 75
Filename D:\EAC\75 - Recit. Pharq Khez.wav
Peak level 44.0 % Extraction speed 3.4 X Track quality 100.0 % Test CRC EDB95597 Copy CRC EDB95597 Accurately ripped (confidence 1) [55EC90A0] (AR v1) Copy OK
Track 76
Filename D:\EAC\76 - Recit. Ase....wav
Peak level 74.7 % Extraction speed 1.8 X Track quality 99.4 % Test CRC 029DB889 Copy CRC 029DB889 Accurately ripped (confidence 1) [F23BF9A8] (AR v1) Copy OK
All tracks accurately ripped
No errors occurred
End of status report
==== Log checksum 177128686C2CB4011BD970AC90A508F72018A9773ACF8F2E0CE3EABFEBD30641 ====

LOG (.CUE):

REM GENRE ClassicalREM DATE 2001REM DISCID 6B0F384CREM COMMENT "ExactAudioCopy v1.0b3"PERFORMER "Tchekidjian, State Choir of Armenia"TITLE "Armenian Liturgy. Komitas"FILE "01 - Khorurd Khorin.wav" WAVE TRACK 01 AUDIO TITLE "Khorurd Khorin" PERFORMER "Tchekidjian, State Choir of Armenia" FLAGS DCP INDEX 01 00:00:00FILE "02 - Recit. Thagavor erknavor.wav" WAVE TRACK 02 AUDIO TITLE "Recit. Thagavor erknavor" PERFORMER "Tchekidjian, State Choir of Armenia" FLAGS DCP INDEX 01 00:00:00FILE "03 - Barekhosutiamb.wav" WAVE TRACK 03 AUDIO TITLE "Barekhosutiamb" PERFORMER "Tchekidjian, State Choir of Armenia" FLAGS DCP INDEX 01 00:00:00FILE "04 - Recit. Barekhosutiamb.wav" WAVE TRACK 04 AUDIO TITLE "Recit. Barekhosutiamb" PERFORMER "Tchekidjian, State Choir of Armenia" FLAGS DCP INDEX 01 00:00:00FILE "05 - Recit. Ev ynd hogvuid.wav" WAVE TRACK 05 AUDIO TITLE "Recit. Ev ynd hogvuid" PERFORMER "Tchekidjian, State Choir of Armenia" FLAGS DCP INDEX 01 00:00:00FILE "06 - Recit. Arachi Kho Ter.wav" WAVE TRACK 06 AUDIO TITLE "Recit. Arachi Kho Ter" PERFORMER "Tchekidjian, State Choir of Armenia" FLAGS DCP INDEX 01 00:00:00FILE "07 - Surb Astuats, vor hariar.wav" WAVE TRACK 07 AUDIO TITLE "Surb Astuats, vor hariar" PERFORMER "Tchekidjian, State Choir of Armenia" FLAGS DCP INDEX 01 00:00:00FILE "08 - Recit. Vasn…Ter voghormia.wav" WAVE TRACK 08 AUDIO TITLE "Recit. Vasn…Ter voghormia" PERFORMER "Tchekidjian, State Choir of Armenia" FLAGS DCP INDEX 01 00:00:00FILE "09 - Recit. Hishia, Ter.wav" WAVE TRACK 09 AUDIO TITLE "Recit. Hishia, Ter" PERFORMER "Tchekidjian, State Choir of Armenia" FLAGS DCP INDEX 01 00:00:00FILE "10 - Recit. Ev ynd hogvuid.wav" WAVE TRACK 10 AUDIO TITLE "Recit. Ev ynd hogvuid" PERFORMER "Tchekidjian, State Choir of Armenia" FLAGS DCP INDEX 01 00:00:00FILE "11 - Recit. Pharkh Khez.wav" WAVE TRACK 11 AUDIO TITLE "Recit. Pharkh Khez" PERFORMER "Tchekidjian, State Choir of Armenia" FLAGS DCP INDEX 01 00:00:00FILE "12 - Recit. Ase Astvats.wav" WAVE TRACK 12 AUDIO TITLE "Recit. Ase Astvats" PERFORMER "Tchekidjian, State Choir of Armenia" FLAGS DCP INDEX 01 00:00:00FILE "13 - Recit. Pharkh Khez.wav" WAVE TRACK 13 AUDIO TITLE "Recit. Pharkh Khez" PERFORMER "Tchekidjian, State Choir of Armenia" FLAGS DCP INDEX 01 00:00:00FILE "14 - Recit. Ter voghormia.wav" WAVE TRACK 14 AUDIO TITLE "Recit. Ter voghormia" PERFORMER "Tchekidjian, State Choir of Armenia" FLAGS DCP INDEX 01 00:00:00FILE "15 - Recit. Keco, Ter.wav" WAVE TRACK 15 AUDIO TITLE "Recit. Keco, Ter" PERFORMER "Tchekidjian, State Choir of Armenia" FLAGS DCP INDEX 01 00:00:00FILE "16 - Recit. Ev ynd hogvuid.wav" WAVE TRACK 16 AUDIO TITLE "Recit. Ev ynd hogvuid" PERFORMER "Tchekidjian, State Choir of Armenia" FLAGS DCP INDEX 01 00:00:00FILE "17 - Recit. Arachi Kho Ter.wav" WAVE TRACK 17 AUDIO TITLE "Recit. Arachi Kho Ter" PERFORMER "Tchekidjian, State Choir of Armenia" FLAGS DCP INDEX 01 00:00:00FILE "18 - Recit. Amen.wav" WAVE TRACK 18 AUDIO TITLE "Recit. Amen" PERFORMER "Tchekidjian, State Choir of Armenia" FLAGS DCP INDEX 01 00:00:00FILE "19 - Marmin terunakan.wav" WAVE TRACK 19 AUDIO TITLE "Marmin terunakan" PERFORMER "Tchekidjian, State Choir of Armenia" FLAGS DCP INDEX 01 00:00:00FILE "20 - Hreshtakain.wav" WAVE TRACK 20 AUDIO TITLE "Hreshtakain" PERFORMER "Tchekidjian, State Choir of Armenia" FLAGS DCP INDEX 01 00:00:00FILE "21 - Recit. Ter voghormia.wav" WAVE TRACK 21 AUDIO TITLE "Recit. Ter voghormia" PERFORMER "Tchekidjian, State Choir of Armenia" FLAGS DCP INDEX 01 00:00:00FILE "22 - Recit. Keco, Ter.wav" WAVE TRACK 22 AUDIO TITLE "Recit. Keco, Ter" PERFORMER "Tchekidjian, State Choir of Armenia" FLAGS DCP INDEX 01 00:00:00FILE "23 - Recit. Ev ynd hogvuid.wav" WAVE TRACK 23 AUDIO TITLE "Recit. Ev ynd hogvuid" PERFORMER "Tchekidjian, State Choir of Armenia" FLAGS DCP INDEX 01 00:00:00FILE "24 - Recit. Arachi Qo Ter.wav" WAVE TRACK 24 AUDIO TITLE "Recit. Arachi Qo Ter" PERFORMER "Tchekidjian, State Choir of Armenia" FLAGS DCP INDEX 01 00:00:00FILE "25 - Khristos i metc mer.wav" WAVE TRACK 25 AUDIO TITLE "Khristos i metc mer" PERFORMER "Tchekidjian, State Choir of Armenia" FLAGS DCP INDEX 01 00:00:00FILE "26 - Recit. Ver hambarnambkh.wav" WAVE TRACK 26 AUDIO TITLE "Recit. Ver hambarnambkh" PERFORMER "Tchekidjian, State Choir of Armenia" FLAGS DCP INDEX 01 00:00:00FILE "27 - Recit. Ar Khez Astvats.wav" WAVE TRACK 27 AUDIO TITLE "Recit. Ar Khez Astvats" PERFORMER "Tchekidjian, State Choir of Armenia" FLAGS DCP INDEX 01 00:00:00FILE "28 - Recit. Voghormutiun.wav" WAVE TRACK 28 AUDIO TITLE "Recit. Voghormutiun" PERFORMER "Tchekidjian, State Choir of Armenia" FLAGS DCP INDEX 01 00:00:00FILE "29 - Recit. Amen. Ev ynd hogvuid.wav" WAVE TRACK 29 AUDIO TITLE "Recit. Amen. Ev ynd hogvuid" PERFORMER "Tchekidjian, State Choir of Armenia" FLAGS DCP INDEX 01 00:00:00FILE "30 - Recit. Unimkh.wav" WAVE TRACK 30 AUDIO TITLE "Recit. Unimkh" PERFORMER "Tchekidjian, State Choir of Armenia" FLAGS DCP INDEX 01 00:00:00FILE "31 - Recit. Arjan ev irav.wav" WAVE TRACK 31 AUDIO TITLE "Recit. Arjan ev irav" PERFORMER "Tchekidjian, State Choir of Armenia" FLAGS DCP INDEX 01 00:00:00FILE "32 - Surb, Surb, Surb.wav" WAVE TRACK 32 AUDIO TITLE "Surb, Surb, Surb" PERFORMER "Tchekidjian, State Choir of Armenia" FLAGS DCP INDEX 01 00:00:00FILE "33 - Recit. Amen.wav" WAVE TRACK 33 AUDIO TITLE "Recit. Amen" PERFORMER "Tchekidjian, State Choir of Armenia" FLAGS DCP INDEX 01 00:00:00FILE "34 - Amen. Hair erknain.wav" WAVE TRACK 34 AUDIO TITLE "Amen. Hair erknain" PERFORMER "Tchekidjian, State Choir of Armenia" FLAGS DCP INDEX 01 00:00:00FILE "35 - Hamenaini.wav" WAVE TRACK 35 AUDIO TITLE "Hamenaini" PERFORMER "Tchekidjian, State Choir of Armenia" FLAGS DCP INDEX 01 00:00:00FILE "36 - Recit. Ev ynd hogvuid.wav" WAVE TRACK 36 AUDIO TITLE "Recit. Ev ynd hogvuid" PERFORMER "Tchekidjian, State Choir of Armenia" FLAGS DCP INDEX 01 00:00:00FILE "37 - Arachi Qo, Ter. Vordi Astutso.wav" WAVE TRACK 37 AUDIO TITLE "Arachi Qo, Ter. Vordi Astutso" PERFORMER "Tchekidjian, State Choir of Armenia" FLAGS DCP INDEX 01 00:00:00FILE "38 - Hogi Astuco.wav" WAVE TRACK 38 AUDIO TITLE "Hogi Astuco" PERFORMER "Tchekidjian, State Choir of Armenia" FLAGS DCP INDEX 01 00:00:00FILE "39 - Recit. Hishea, Ter.wav" WAVE TRACK 39 AUDIO TITLE "Recit. Hishea, Ter" PERFORMER "Tchekidjian, State Choir of Armenia" FLAGS DCP INDEX 01 00:00:00FILE "40 - Recit. Hishea, Ter.wav" WAVE TRACK 40 AUDIO TITLE "Recit. Hishea, Ter" PERFORMER "Tchekidjian, State Choir of Armenia" FLAGS DCP INDEX 01 00:00:00FILE "41 - Recit. Hishea, Ter.wav" WAVE TRACK 41 AUDIO TITLE "Recit. Hishea, Ter" PERFORMER "Tchekidjian, State Choir of Armenia" FLAGS DCP INDEX 01 00:00:00FILE "42 - Recit. Pharkh Harutean Kho.wav" WAVE TRACK 42 AUDIO TITLE "Recit. Pharkh Harutean Kho" PERFORMER "Tchekidjian, State Choir of Armenia" FLAGS DCP INDEX 01 00:00:00FILE "43 - Recit. Hishea, Ter.wav" WAVE TRACK 43 AUDIO TITLE "Recit. Hishea, Ter" PERFORMER "Tchekidjian, State Choir of Armenia" FLAGS DCP INDEX 01 00:00:00FILE "44 - Recit. Hishea, Ter.wav" WAVE TRACK 44 AUDIO TITLE "Recit. Hishea, Ter" PERFORMER "Tchekidjian, State Choir of Armenia" FLAGS DCP INDEX 01 00:00:00FILE "45 - Recit. Hishea, Ter.wav" WAVE TRACK 45 AUDIO TITLE "Recit. Hishea, Ter" PERFORMER "Tchekidjian, State Choir of Armenia" FLAGS DCP INDEX 01 00:00:00FILE "46 - Recit. Hishea, Ter.wav" WAVE TRACK 46 AUDIO TITLE "Recit. Hishea, Ter" PERFORMER "Tchekidjian, State Choir of Armenia" FLAGS DCP INDEX 01 00:00:00FILE "47 - Havatamkh. Gohutun ev parabanitiun.wav" WAVE TRACK 47 AUDIO TITLE "Havatamkh. Gohutun ev parabanitiun" PERFORMER "Tchekidjian, State Choir of Armenia" FLAGS DCP INDEX 01 00:00:00FILE "48 - Recit. Amen. Ev ynd hogvuid.wav" WAVE TRACK 48 AUDIO TITLE "Recit. Amen. Ev ynd hogvuid" PERFORMER "Tchekidjian, State Choir of Armenia" FLAGS DCP INDEX 01 00:00:00FILE "49 - Recit. Ter voghormia.wav" WAVE TRACK 49 AUDIO TITLE "Recit. Ter voghormia" PERFORMER "Tchekidjian, State Choir of Armenia" FLAGS DCP INDEX 01 00:00:00FILE "50 - Recit. Ter voghormia.wav" WAVE TRACK 50 AUDIO TITLE "Recit. Ter voghormia" PERFORMER "Tchekidjian, State Choir of Armenia" FLAGS DCP INDEX 01 00:00:00FILE "51 - Recit. Ter voghormia.wav" WAVE TRACK 51 AUDIO TITLE "Recit. Ter voghormia" PERFORMER "Tchekidjian, State Choir of Armenia" FLAGS DCP INDEX 01 00:00:00FILE "52 - Recit. Ter voghormia.wav" WAVE TRACK 52 AUDIO TITLE "Recit. Ter voghormia" PERFORMER "Tchekidjian, State Choir of Armenia" FLAGS DCP INDEX 01 00:00:00FILE "53 - Recit. Keco, Ter voghormia.wav" WAVE TRACK 53 AUDIO TITLE "Recit. Keco, Ter voghormia" PERFORMER "Tchekidjian, State Choir of Armenia" FLAGS DCP INDEX 01 00:00:00FILE "54 - Recit. Hishea, Ter voghormia.wav" WAVE TRACK 54 AUDIO TITLE "Recit. Hishea, Ter voghormia" PERFORMER "Tchekidjian, State Choir of Armenia" FLAGS DCP INDEX 01 00:00:00FILE "55 - Hair mer.wav" WAVE TRACK 55 AUDIO TITLE "Hair mer" PERFORMER "Tchekidjian, State Choir of Armenia" FLAGS DCP INDEX 01 00:00:00FILE "56 - Recit. Ev ynd hogvuid.wav" WAVE TRACK 56 AUDIO TITLE "Recit. Ev ynd hogvuid" PERFORMER "Tchekidjian, State Choir of Armenia" FLAGS DCP INDEX 01 00:00:00FILE "57 - Recit. Arachi Kho Ter.wav" WAVE TRACK 57 AUDIO TITLE "Recit. Arachi Kho Ter" PERFORMER "Tchekidjian, State Choir of Armenia" FLAGS DCP INDEX 01 00:00:00FILE "58 - Miain Surb.wav" WAVE TRACK 58 AUDIO TITLE "Miain Surb" PERFORMER "Tchekidjian, State Choir of Armenia" FLAGS DCP INDEX 01 00:00:00FILE "59 - Recit. Amen.wav" WAVE TRACK 59 AUDIO TITLE "Recit. Amen" PERFORMER "Tchekidjian, State Choir of Armenia" FLAGS DCP INDEX 01 00:00:00FILE "60 - Amen. Hair Surb.wav" WAVE TRACK 60 AUDIO TITLE "Amen. Hair Surb" PERFORMER "Tchekidjian, State Choir of Armenia" FLAGS DCP INDEX 01 00:00:00FILE "61 - Ter voghormia.wav" WAVE TRACK 61 AUDIO TITLE "Ter voghormia" PERFORMER "Tchekidjian, State Choir of Armenia" FLAGS DCP INDEX 01 00:00:00FILE "62 - Ynkal Ter.wav" WAVE TRACK 62 AUDIO TITLE "Ynkal Ter" PERFORMER "Tchekidjian, State Choir of Armenia" FLAGS DCP INDEX 01 00:00:00FILE "63 - Orhnial e Astvatc.wav" WAVE TRACK 63 AUDIO TITLE "Orhnial e Astvatc" PERFORMER "Tchekidjian, State Choir of Armenia" FLAGS DCP INDEX 01 00:00:00FILE "64 - Recit. Astvats Mer.wav" WAVE TRACK 64 AUDIO TITLE "Recit. Astvats Mer" PERFORMER "Tchekidjian, State Choir of Armenia" FLAGS DCP INDEX 01 00:00:00FILE "65 - Lcaq i Barutiamb Khoc.wav" WAVE TRACK 65 AUDIO TITLE "Lcaq i Barutiamb Khoc" PERFORMER "Tchekidjian, State Choir of Armenia" FLAGS DCP INDEX 01 00:00:00FILE "66 - Recit. Ter voghormia.wav" WAVE TRACK 66 AUDIO TITLE "Recit. Ter voghormia" PERFORMER "Tchekidjian, State Choir of Armenia" FLAGS DCP INDEX 01 00:00:00FILE "67 - Gohanamb zKhen.wav" WAVE TRACK 67 AUDIO TITLE "Gohanamb zKhen" PERFORMER "Tchekidjian, State Choir of Armenia" FLAGS DCP INDEX 01 00:00:00FILE "68 - Orhnial e Astvats.wav" WAVE TRACK 68 AUDIO TITLE "Orhnial e Astvats" PERFORMER "Tchekidjian, State Choir of Armenia" FLAGS DCP INDEX 01 00:00:00FILE "69 - Recit. Amen.wav" WAVE TRACK 69 AUDIO TITLE "Recit. Amen" PERFORMER "Tchekidjian, State Choir of Armenia" FLAGS DCP INDEX 01 00:00:00FILE "70 - Recit. Amen.wav" WAVE TRACK 70 AUDIO TITLE "Recit. Amen" PERFORMER "Tchekidjian, State Choir of Armenia" FLAGS DCP INDEX 01 00:00:00FILE "71 - Recit. Amen.wav" WAVE TRACK 71 AUDIO TITLE "Recit. Amen" PERFORMER "Tchekidjian, State Choir of Armenia" FLAGS DCP INDEX 01 00:00:00FILE "72 - Recit. Amen.wav" WAVE TRACK 72 AUDIO TITLE "Recit. Amen" PERFORMER "Tchekidjian, State Choir of Armenia" FLAGS DCP INDEX 01 00:00:00FILE "73 - Yeghici anun Tearn.wav" WAVE TRACK 73 AUDIO TITLE "Yeghici anun Tearn" PERFORMER "Tchekidjian, State Choir of Armenia" FLAGS DCP INDEX 01 00:00:00FILE "74 - Recit. Yev ynd hognuim khum.wav" WAVE TRACK 74 AUDIO TITLE "Recit. Yev ynd hognuim khum" PERFORMER "Tchekidjian, State Choir of Armenia" FLAGS DCP INDEX 01 00:00:00FILE "75 - Recit. Pharq Khez.wav" WAVE TRACK 75 AUDIO TITLE "Recit. Pharq Khez" PERFORMER "Tchekidjian, State Choir of Armenia" FLAGS DCP INDEX 01 00:00:00FILE "76 - Recit. Ase....wav" WAVE TRACK 76 AUDIO TITLE "Recit. Ase..." PERFORMER "Tchekidjian, State Choir of Armenia" FLAGS DCP INDEX 01 00:00:00
Tchekidjian-Yekmalian
Внимание! Торрент-файл перезалит 21.01.2016 в 00:00 по МСК времени, сделан новый рип с диска.
[teatrix.ru].t12948.torrent 
Торрент: Зарегистрирован [ 2016-01-21 02:15 ] · B8F11BE524F69815060F2A100051568980B6910D

Скачать .torrent

Скачать

24 KB

Статус: проверено
Скачан: 0 раз
Размер: 243 MB
terms.php



Быстрый ответ

Имя:

      
Для отправки сообщений необходимо включить JavaScript
Показать сообщения:    

Текущее время: 05-Дек 17:34

Часовой пояс: UTC + 3


Вы можете начинать темы
Вы можете отвечать на сообщения
Вы не можете редактировать свои сообщения
Вы не можете удалять свои сообщения
Вы не можете голосовать в опросах
Вы не можете прикреплять файлы к сообщениям
Вы можете скачивать файлы