(Classical) Antoine Brumel - Missa \'Et ecce terrae motus\' - Ensemble Clement Janequin, Les Sacqueboutiers de Toulouse, Dominique Visse - 2003, FLAC (image+.cue) lossless


Статистика раздачи [Обновить пиров]
Размер:  272 MB   |    Зарегистрирован:  10 месяцев 14 дней   |    Скачан:  0 раз

Полного источника не было: Никогда

 
   
 
 
 

[Цитировать]

Antoine Brumel - Missa 'Et ecce terrae motus' - Ensemble Clement Janequin, Les Sacqueboutiers de Toulouse, Dominique Visse
Жанр: Classical
Страна-производитель диска: France
Год издания диска: 2003
Издатель (лейбл): Harmonia Mundi
Номер по каталогу: HMC901738
Дата записи: 2002
Аудиокодек: FLAC
Тип рипа: image+.cue
Битрейт аудио: lossless
Продолжительность: 58:15
Источник: собственный рип
Наличие сканов в содержимом раздачи: да
Треклист:
Antoine Brumel (c.1460-1515)
[1]-[7] Messe à 12 voix "Et ecce terrae motus"
Исполнители:
Ensemble Clément Janequin
Les Sacqueboutiers de Toulouse
Dominique Visse

Лог создания рипа

Exact Audio Copy V1.0 beta 3 from 29. August 2011
EAC extraction logfile from 6. May 2015, 0:15
Ensemble Clément Janequin, Dominique Visse / Brumel - Missa 'Et ecce terrae motus'
Used drive : HL-DT-STDVDRAM GU70N Adapter: 0 ID: 0
Read mode : SecureUtilize accurate stream : YesDefeat audio cache : YesMake use of C2 pointers : No
Read offset correction : 48Overread into Lead-In and Lead-Out : NoFill up missing offset samples with silence : YesDelete leading and trailing silent blocks : NoNull samples used in CRC calculations : YesUsed interface : Native Win32 interface for Win NT & 2000
Used output format : User Defined EncoderSelected bitrate : 128 kBit/sQuality : HighAdd ID3 tag : NoCommand line compressor : C:\Program Files (x86)\Exact Audio Copy\Flac\flac.exeAdditional command line options : -V -8 -T "Date=%year%" -T "Genre=%genre%" %source%
TOC of the extracted CD
Track | Start | Length | Start sector | End sector --------------------------------------------------------- 1 | 0:00.00 | 11:50.25 | 0 | 53274 2 | 11:50.25 | 10:25.22 | 53275 | 100171 3 | 22:15.47 | 9:22.58 | 100172 | 142379 4 | 31:38.30 | 14:13.26 | 142380 | 206380 5 | 45:51.56 | 4:16.64 | 206381 | 225644 6 | 50:08.45 | 4:12.16 | 225645 | 244560 7 | 54:20.61 | 3:54.52 | 244561 | 262162
Range status and errors
Selected range
Filename C:\temp\HMC901738 - Brumel - Missa 'Et ecce terrae motus' (Ensemble Clement Janequin, Visse - HARMONIA MUNDI)\Brumel - Missa 'Et ecce terrae motus'.wav
Peak level 98.8 % Extraction speed 5.2 X Range quality 100.0 % Test CRC 928402D2 Copy CRC 928402D2 Copy OK
No errors occurred
AccurateRip summary
Track 1 accurately ripped (confidence 7) [E9691B6B] (AR v2)Track 2 accurately ripped (confidence 7) [59254A87] (AR v2)Track 3 accurately ripped (confidence 7) [D23088AA] (AR v2)Track 4 accurately ripped (confidence 7) [9B569411] (AR v2)Track 5 accurately ripped (confidence 7) [5F3E61BA] (AR v2)Track 6 accurately ripped (confidence 7) [56F20AD2] (AR v2)Track 7 accurately ripped (confidence 8) [3DA1016B] (AR v2)
All tracks accurately ripped
End of status report
==== Log checksum C7D1E426C00FD01F9DCDBF34D76A6CC3EB12C6B2BED3A71F5388DF1887280933 ====
[teatrix.ru].t12949.torrent 
Торрент: Зарегистрирован [ 2016-01-21 02:15 ] · 3BA8600C4764987A5508133762BE3B3B51F7188C

Скачать .torrent

Скачать

24 KB

Статус: проверено
Скачан: 0 раз
Размер: 272 MB
terms.php



Быстрый ответ

Имя:

      
Для отправки сообщений необходимо включить JavaScript
Показать сообщения:    

Текущее время: 04-Дек 15:18

Часовой пояс: UTC + 3


Вы можете начинать темы
Вы можете отвечать на сообщения
Вы не можете редактировать свои сообщения
Вы не можете удалять свои сообщения
Вы не можете голосовать в опросах
Вы не можете прикреплять файлы к сообщениям
Вы можете скачивать файлы