(Opera, Vocal) The Art of Sandor Konya: Collection of Studio Recitals (Compilation of Operatic Arias by Verdi, Puccini, Donizetti, Meyerbeer, Ponchielli, Flotow, Wagner) - 2014, FLAC (tracks+.cue), lossless


 

[Цитировать]

The Art of Sándor Kónya
Жанр: Opera, Vocal
Страна-производитель диска: Aвстралия
Год издания диска: 2014
Издатель (лейбл): Eloquence
Дата записи: 1959-1962, 1967
Аудиокодек: FLAC
Тип рипа: tracks+.cue
Битрейт аудио: lossless
Продолжительность: 139:46
Источник: релизер (EL HUMILDE CAMPESINO)
Исполнители:
Sándor Kónya, tenor,
Giorgio Giogetti, baritone (CD 1: tracks 1, 4),
Emma Bruno, soprano (CD 1: track 4),
Antonino Votto, Conductor (CD 1: tracks 1-12),
Orchestra del Maggio Musicale Fiorentino,
Janos Kulka, Conductor (CD 1: tracks 13-19),
Bamberger Symphoniker,
Richard Kraus, Conductor (CD 1: tracks 20-21),
Berliner Philharmoniker
Otto Guth, piano (CD 2: tracks 1-13),
Richard Kraus, Conductor (CD 2: tracks 14-17)
Berliner Philharmoniker.
Recording's Dates:
1959 - Scenes from Wagner's Operas;
1960 - Arias from L'elisir d'amore, L'Africaine, La Gioconda, Aida, Martha, Il Trovatore;
1961 - Scenes from Rigoletto;
1962 - Collection of Puccini's Arias;
1967 - Verdi and Wagner Songs.
Recorded in Berlin's Studio for Deutsche Grammophon.

Лог создания рипаЛог создания рипа CD 1

Exact Audio Copy V1.0 beta 3 from 29. August 2011
EAC extraction logfile from 18. January 2016, 18:06
Artista desconocido / Título desconocido
Used drive : HL-DT-STDVDRAM GH24NSC0 Adapter: 3 ID: 0
Read mode : SecureUtilize accurate stream : YesDefeat audio cache : YesMake use of C2 pointers : No
Read offset correction : 6Overread into Lead-In and Lead-Out : NoFill up missing offset samples with silence : YesDelete leading and trailing silent blocks : NoNull samples used in CRC calculations : YesUsed interface : Native Win32 interface for Win NT & 2000Gap handling : Appended to previous track
Used output format : User Defined EncoderSelected bitrate : 768 kBit/sQuality : HighAdd ID3 tag : NoCommand line compressor : C:\Program Files (x86)\Exact Audio Copy\FLAC\FLAC.EXEAdditional command line options : -8 -V -T "ARTIST=%artist%" -T "TITLE=%title%" -T "ALBUM=%albumtitle%" -T "DATE=%year%" -T "TRACKNUMBER=%tracknr%" -T "GENRE=%genre%" -T "PERFORMER=%albuminterpret%" -T "COMPOSER=%composer%" %haslyrics%--tag-from-file=LYRICS="%lyricsfile%"%haslyrics% -T "ALBUMARTIST=%albumartist%" -T "DISCNUMBER=%cdnumber%" -T "TOTALDISCS=%totalcds%" -T "TOTALTRACKS=%numtracks%" -T "COMMENT=%comment%" %source% -o %dest%
TOC of the extracted CD
Track | Start | Length | Start sector | End sector --------------------------------------------------------- 1 | 0:00.00 | 3:02.47 | 0 | 13696 2 | 3:02.47 | 3:44.11 | 13697 | 30507 3 | 6:46.58 | 2:09.10 | 30508 | 40192 4 | 8:55.68 | 2:30.05 | 40193 | 51447 5 | 11:25.73 | 2:15.44 | 51448 | 61616 6 | 13:41.42 | 2:48.69 | 61617 | 74285 7 | 16:30.36 | 4:57.50 | 74286 | 96610 8 | 21:28.11 | 3:03.25 | 96611 | 110360 9 | 24:31.36 | 1:58.68 | 110361 | 119278 10 | 26:30.29 | 2:33.43 | 119279 | 130796 11 | 29:03.72 | 2:54.12 | 130797 | 143858 12 | 31:58.09 | 3:11.69 | 143859 | 158252 13 | 35:10.03 | 4:15.73 | 158253 | 177450 14 | 39:26.01 | 3:46.72 | 177451 | 194472 15 | 43:12.73 | 4:56.13 | 194473 | 216685 16 | 48:09.11 | 3:10.41 | 216686 | 230976 17 | 51:19.52 | 4:25.17 | 230977 | 250868 18 | 55:44.69 | 4:36.70 | 250869 | 271638 19 | 60:21.64 | 1:43.30 | 271639 | 279393 20 | 62:05.19 | 4:51.24 | 279394 | 301242 21 | 66:56.43 | 2:19.40 | 301243 | 311707
Track 1
Filename f:\Users\Guillermo\Desktop\EAC convertidos\01 Pista01.wav
Pre-gap length 0:00:02.00
Peak level 71.3 % Extraction speed 1.5 X Track quality 100.0 % Test CRC EA5C9165 Copy CRC EA5C9165 Copy OK
Track 2
Filename f:\Users\Guillermo\Desktop\EAC convertidos\02 Pista02.wav
Pre-gap length 0:00:03.82
Peak level 86.6 % Extraction speed 1.7 X Track quality 100.0 % Test CRC E4949132 Copy CRC E4949132 Copy OK
Track 3
Filename f:\Users\Guillermo\Desktop\EAC convertidos\03 Pista03.wav
Pre-gap length 0:00:03.97
Peak level 64.1 % Extraction speed 1.6 X Track quality 100.0 % Test CRC 912ECBFD Copy CRC 912ECBFD Copy OK
Track 4
Filename f:\Users\Guillermo\Desktop\EAC convertidos\04 Pista04.wav
Pre-gap length 0:00:03.40
Peak level 70.8 % Extraction speed 1.4 X Track quality 99.8 % Test CRC AD7DE8C7 Copy CRC AD7DE8C7 Copy OK
Track 5
Filename f:\Users\Guillermo\Desktop\EAC convertidos\05 Pista05.wav
Pre-gap length 0:00:03.88
Peak level 86.3 % Extraction speed 1.8 X Track quality 100.0 % Test CRC F0E0EC4F Copy CRC F0E0EC4F Copy OK
Track 6
Filename f:\Users\Guillermo\Desktop\EAC convertidos\06 Pista06.wav
Pre-gap length 0:00:03.84
Peak level 70.8 % Extraction speed 1.9 X Track quality 100.0 % Test CRC 4D8CF0B9 Copy CRC 4D8CF0B9 Copy OK
Track 7
Filename f:\Users\Guillermo\Desktop\EAC convertidos\07 Pista07.wav
Pre-gap length 0:00:03.49
Peak level 73.8 % Extraction speed 2.3 X Track quality 100.0 % Test CRC 42A2BA43 Copy CRC 42A2BA43 Copy OK
Track 8
Filename f:\Users\Guillermo\Desktop\EAC convertidos\08 Pista08.wav
Pre-gap length 0:00:03.97
Peak level 83.0 % Extraction speed 2.2 X Track quality 100.0 % Test CRC 102B6C6C Copy CRC 102B6C6C Copy OK
Track 9
Filename f:\Users\Guillermo\Desktop\EAC convertidos\09 Pista09.wav
Pre-gap length 0:00:03.60
Peak level 67.2 % Extraction speed 2.0 X Track quality 100.0 % Test CRC 111BF878 Copy CRC 111BF878 Copy OK
Track 10
Filename f:\Users\Guillermo\Desktop\EAC convertidos\10 Pista10.wav
Pre-gap length 0:00:03.81
Peak level 69.8 % Extraction speed 1.7 X Track quality 99.8 % Test CRC EE777DFA Copy CRC EE777DFA Copy OK
Track 11
Filename f:\Users\Guillermo\Desktop\EAC convertidos\11 Pista11.wav
Pre-gap length 0:00:03.85
Peak level 66.0 % Extraction speed 2.4 X Track quality 100.0 % Test CRC B11E4D59 Copy CRC B11E4D59 Copy OK
Track 12
Filename f:\Users\Guillermo\Desktop\EAC convertidos\12 Pista12.wav
Pre-gap length 0:00:03.30
Peak level 97.9 % Extraction speed 2.5 X Track quality 100.0 % Test CRC CD350FF4 Copy CRC CD350FF4 Copy OK
Track 13
Filename f:\Users\Guillermo\Desktop\EAC convertidos\13 Pista13.wav
Pre-gap length 0:00:05.80
Peak level 61.9 % Extraction speed 2.8 X Track quality 100.0 % Test CRC 4A5FB155 Copy CRC 4A5FB155 Copy OK
Track 14
Filename f:\Users\Guillermo\Desktop\EAC convertidos\14 Pista14.wav
Pre-gap length 0:00:03.49
Peak level 63.8 % Extraction speed 2.8 X Track quality 100.0 % Test CRC 2BBF283F Copy CRC 2BBF283F Copy OK
Track 15
Filename f:\Users\Guillermo\Desktop\EAC convertidos\15 Pista15.wav
Pre-gap length 0:00:03.90
Peak level 71.5 % Extraction speed 3.0 X Track quality 100.0 % Test CRC 154064B2 Copy CRC 154064B2 Copy OK
Track 16
Filename f:\Users\Guillermo\Desktop\EAC convertidos\16 Pista16.wav
Pre-gap length 0:00:03.69
Peak level 71.8 % Extraction speed 2.4 X Track quality 99.8 % Test CRC B94DFBBE Copy CRC B94DFBBE Copy OK
Track 17
Filename f:\Users\Guillermo\Desktop\EAC convertidos\17 Pista17.wav
Pre-gap length 0:00:03.26
Peak level 72.2 % Extraction speed 3.2 X Track quality 100.0 % Test CRC 4E6A75DE Copy CRC 4E6A75DE Copy OK
Track 18
Filename f:\Users\Guillermo\Desktop\EAC convertidos\18 Pista18.wav
Pre-gap length 0:00:03.50
Peak level 63.4 % Extraction speed 2.8 X Track quality 99.9 % Test CRC B81FD891 Copy CRC B81FD891 Copy OK
Track 19
Filename f:\Users\Guillermo\Desktop\EAC convertidos\19 Pista19.wav
Pre-gap length 0:00:03.54
Peak level 79.0 % Extraction speed 2.6 X Track quality 100.0 % Test CRC 8FAEA31E Copy CRC 8FAEA31E Copy OK
Track 20
Filename f:\Users\Guillermo\Desktop\EAC convertidos\20 Pista20.wav
Pre-gap length 0:00:04.65
Peak level 70.1 % Extraction speed 3.5 X Track quality 100.0 % Test CRC FCD7BBF4 Copy CRC FCD7BBF4 Copy OK
Track 21
Filename f:\Users\Guillermo\Desktop\EAC convertidos\21 Pista21.wav
Pre-gap length 0:00:03.36
Peak level 67.9 % Extraction speed 2.9 X Track quality 100.0 % Test CRC 1A178C42 Copy CRC 1A178C42 Copy OK
No errors occurred
End of status report
==== Log checksum 796132F41422676A21E46A01986B5FE6C99402A589002386581844B1ACA7CE73 ====

Лог создания рипа CD 2

Exact Audio Copy V1.0 beta 3 from 29. August 2011
EAC extraction logfile from 18. January 2016, 19:02
Artista desconocido / Título desconocido
Used drive : HL-DT-STDVDRAM GH24NSC0 Adapter: 3 ID: 0
Read mode : SecureUtilize accurate stream : YesDefeat audio cache : YesMake use of C2 pointers : No
Read offset correction : 6Overread into Lead-In and Lead-Out : NoFill up missing offset samples with silence : YesDelete leading and trailing silent blocks : NoNull samples used in CRC calculations : YesUsed interface : Native Win32 interface for Win NT & 2000Gap handling : Appended to previous track
Used output format : User Defined EncoderSelected bitrate : 768 kBit/sQuality : HighAdd ID3 tag : NoCommand line compressor : C:\Program Files (x86)\Exact Audio Copy\FLAC\FLAC.EXEAdditional command line options : -8 -V -T "ARTIST=%artist%" -T "TITLE=%title%" -T "ALBUM=%albumtitle%" -T "DATE=%year%" -T "TRACKNUMBER=%tracknr%" -T "GENRE=%genre%" -T "PERFORMER=%albuminterpret%" -T "COMPOSER=%composer%" %haslyrics%--tag-from-file=LYRICS="%lyricsfile%"%haslyrics% -T "ALBUMARTIST=%albumartist%" -T "DISCNUMBER=%cdnumber%" -T "TOTALDISCS=%totalcds%" -T "TOTALTRACKS=%numtracks%" -T "COMMENT=%comment%" %source% -o %dest%
TOC of the extracted CD
Track | Start | Length | Start sector | End sector --------------------------------------------------------- 1 | 0:00.00 | 3:36.00 | 0 | 16199 2 | 3:36.00 | 2:33.36 | 16200 | 27710 3 | 6:09.36 | 3:33.48 | 27711 | 43733 4 | 9:43.09 | 2:48.56 | 43734 | 56389 5 | 12:31.65 | 3:46.55 | 56390 | 73394 6 | 16:18.45 | 2:19.61 | 73395 | 83880 7 | 18:38.31 | 2:20.44 | 83881 | 94424 8 | 20:59.00 | 1:39.62 | 94425 | 101911 9 | 22:38.62 | 2:36.02 | 101912 | 113613 10 | 25:14.64 | 2:43.48 | 113614 | 125886 11 | 27:58.37 | 2:52.44 | 125887 | 138830 12 | 30:51.06 | 4:55.68 | 138831 | 161023 13 | 35:46.74 | 6:30.52 | 161024 | 190325 14 | 42:17.51 | 4:03.03 | 190326 | 208553 15 | 46:20.54 | 4:31.27 | 208554 | 228905 16 | 50:52.06 | 5:07.47 | 228906 | 251977 17 | 55:59.53 | 4:30.27 | 251978 | 272254
Track 1
Filename f:\Users\Guillermo\Desktop\EAC convertidos\01 Pista01.wav
Pre-gap length 0:00:02.00
Peak level 79.6 % Extraction speed 1.6 X Track quality 100.0 % Test CRC 49DFE65A Copy CRC 49DFE65A Copy OK
Track 2
Filename f:\Users\Guillermo\Desktop\EAC convertidos\02 Pista02.wav
Peak level 76.8 % Extraction speed 1.6 X Track quality 100.0 % Test CRC 85D8F6ED Copy CRC 85D8F6ED Copy OK
Track 3
Filename f:\Users\Guillermo\Desktop\EAC convertidos\03 Pista03.wav
Peak level 87.5 % Extraction speed 1.8 X Track quality 100.0 % Test CRC 86606E29 Copy CRC 86606E29 Copy OK
Track 4
Filename f:\Users\Guillermo\Desktop\EAC convertidos\04 Pista04.wav
Peak level 91.3 % Extraction speed 1.8 X Track quality 100.0 % Test CRC 16C2983F Copy CRC 16C2983F Copy OK
Track 5
Filename f:\Users\Guillermo\Desktop\EAC convertidos\05 Pista05.wav
Peak level 73.6 % Extraction speed 2.1 X Track quality 100.0 % Test CRC 525212E2 Copy CRC 525212E2 Copy OK
Track 6
Filename f:\Users\Guillermo\Desktop\EAC convertidos\06 Pista06.wav
Peak level 69.7 % Extraction speed 1.9 X Track quality 100.0 % Test CRC A3D100CB Copy CRC A3D100CB Copy OK
Track 7
Filename f:\Users\Guillermo\Desktop\EAC convertidos\07 Pista07.wav
Peak level 92.7 % Extraction speed 2.0 X Track quality 100.0 % Test CRC 73B7A67F Copy CRC 73B7A67F Copy OK
Track 8
Filename f:\Users\Guillermo\Desktop\EAC convertidos\08 Pista08.wav
Pre-gap length 0:00:05.62
Peak level 73.5 % Extraction speed 1.8 X Track quality 100.0 % Test CRC DBA1AC44 Copy CRC DBA1AC44 Copy OK
Track 9
Filename f:\Users\Guillermo\Desktop\EAC convertidos\09 Pista09.wav
Peak level 82.5 % Extraction speed 2.2 X Track quality 100.0 % Test CRC F3331BF2 Copy CRC F3331BF2 Copy OK
Track 10
Filename f:\Users\Guillermo\Desktop\EAC convertidos\10 Pista10.wav
Peak level 71.6 % Extraction speed 2.3 X Track quality 100.0 % Test CRC B4A24536 Copy CRC B4A24536 Copy OK
Track 11
Filename f:\Users\Guillermo\Desktop\EAC convertidos\11 Pista11.wav
Peak level 80.3 % Extraction speed 2.4 X Track quality 100.0 % Test CRC D1E5D4FF Copy CRC D1E5D4FF Copy OK
Track 12
Filename f:\Users\Guillermo\Desktop\EAC convertidos\12 Pista12.wav
Peak level 69.4 % Extraction speed 2.8 X Track quality 100.0 % Test CRC ACF03D40 Copy CRC ACF03D40 Copy OK
Track 13
Filename f:\Users\Guillermo\Desktop\EAC convertidos\13 Pista13.wav
Peak level 95.0 % Extraction speed 2.7 X Track quality 99.9 % Test CRC 001C9461 Copy CRC 001C9461 Copy OK
Track 14
Filename f:\Users\Guillermo\Desktop\EAC convertidos\14 Pista14.wav
Pre-gap length 0:00:06.65
Peak level 81.6 % Extraction speed 2.9 X Track quality 100.0 % Test CRC 0AA487EA Copy CRC 0AA487EA Copy OK
Track 15
Filename f:\Users\Guillermo\Desktop\EAC convertidos\15 Pista15.wav
Peak level 82.0 % Extraction speed 3.1 X Track quality 100.0 % Test CRC C4DEBE24 Copy CRC C4DEBE24 Copy OK
Track 16
Filename f:\Users\Guillermo\Desktop\EAC convertidos\16 Pista16.wav
Pre-gap length 0:00:03.05
Peak level 81.2 % Extraction speed 3.3 X Track quality 100.0 % Test CRC D2F0FAD2 Copy CRC D2F0FAD2 Copy OK
Track 17
Filename f:\Users\Guillermo\Desktop\EAC convertidos\17 Pista17.wav
Peak level 85.6 % Extraction speed 3.3 X Track quality 100.0 % Test CRC 899F7770 Copy CRC 899F7770 Copy OK
No errors occurred
End of status report
==== Log checksum 9BB6CAA1583624EF87D11556F5BC026F6DDEA74594FAA94A9C4121C0FD96EDD0 ====

Содержание индексной карты (.CUE)Содержание индексной карты (.CUE) CD 1

REM DISCID 35103C15REM COMMENT "ExactAudioCopy v1.0b3"FILE "01 Pista01.wav" WAVE TRACK 01 AUDIO INDEX 01 00:00:00 TRACK 02 AUDIO INDEX 00 02:58:60FILE "02 Pista02.wav" WAVE INDEX 01 00:00:00 TRACK 03 AUDIO INDEX 00 03:40:13FILE "03 Pista03.wav" WAVE INDEX 01 00:00:00 TRACK 04 AUDIO INDEX 00 02:05:55FILE "04 Pista04.wav" WAVE INDEX 01 00:00:00 TRACK 05 AUDIO INDEX 00 02:26:14FILE "05 Pista05.wav" WAVE INDEX 01 00:00:00 TRACK 06 AUDIO INDEX 00 02:11:56FILE "06 Pista06.wav" WAVE INDEX 01 00:00:00 TRACK 07 AUDIO INDEX 00 02:45:32FILE "07 Pista07.wav" WAVE INDEX 01 00:00:00 TRACK 08 AUDIO INDEX 00 04:53:52FILE "08 Pista08.wav" WAVE INDEX 01 00:00:00 TRACK 09 AUDIO INDEX 00 02:59:55FILE "09 Pista09.wav" WAVE INDEX 01 00:00:00 TRACK 10 AUDIO INDEX 00 01:55:07FILE "10 Pista10.wav" WAVE INDEX 01 00:00:00 TRACK 11 AUDIO INDEX 00 02:29:54FILE "11 Pista11.wav" WAVE INDEX 01 00:00:00 TRACK 12 AUDIO INDEX 00 02:50:64FILE "12 Pista12.wav" WAVE INDEX 01 00:00:00 TRACK 13 AUDIO INDEX 00 03:06:09FILE "13 Pista13.wav" WAVE INDEX 01 00:00:00 TRACK 14 AUDIO INDEX 00 04:12:36FILE "14 Pista14.wav" WAVE INDEX 01 00:00:00 TRACK 15 AUDIO INDEX 00 03:43:04FILE "15 Pista15.wav" WAVE INDEX 01 00:00:00 TRACK 16 AUDIO INDEX 00 04:52:36FILE "16 Pista16.wav" WAVE INDEX 01 00:00:00 TRACK 17 AUDIO INDEX 00 03:07:21FILE "17 Pista17.wav" WAVE INDEX 01 00:00:00 TRACK 18 AUDIO INDEX 00 04:21:54FILE "18 Pista18.wav" WAVE INDEX 01 00:00:00 TRACK 19 AUDIO INDEX 00 04:33:29FILE "19 Pista19.wav" WAVE INDEX 01 00:00:00 TRACK 20 AUDIO INDEX 00 01:38:56FILE "20 Pista20.wav" WAVE INDEX 01 00:00:00 TRACK 21 AUDIO INDEX 00 04:47:72FILE "21 Pista21.wav" WAVE INDEX 01 00:00:00

Содержание индексной карты (.CUE) CD 2

REM DISCID DD0E2E11REM COMMENT "ExactAudioCopy v1.0b3"FILE "01 Pista01.wav" WAVE TRACK 01 AUDIO INDEX 01 00:00:00FILE "02 Pista02.wav" WAVE TRACK 02 AUDIO INDEX 01 00:00:00FILE "03 Pista03.wav" WAVE TRACK 03 AUDIO INDEX 01 00:00:00FILE "04 Pista04.wav" WAVE TRACK 04 AUDIO INDEX 01 00:00:00FILE "05 Pista05.wav" WAVE TRACK 05 AUDIO INDEX 01 00:00:00FILE "06 Pista06.wav" WAVE TRACK 06 AUDIO INDEX 01 00:00:00FILE "07 Pista07.wav" WAVE TRACK 07 AUDIO INDEX 01 00:00:00 TRACK 08 AUDIO INDEX 00 02:14:72FILE "08 Pista08.wav" WAVE INDEX 01 00:00:00FILE "09 Pista09.wav" WAVE TRACK 09 AUDIO INDEX 01 00:00:00FILE "10 Pista10.wav" WAVE TRACK 10 AUDIO INDEX 01 00:00:00FILE "11 Pista11.wav" WAVE TRACK 11 AUDIO INDEX 01 00:00:00FILE "12 Pista12.wav" WAVE TRACK 12 AUDIO INDEX 01 00:00:00FILE "13 Pista13.wav" WAVE TRACK 13 AUDIO INDEX 01 00:00:00 TRACK 14 AUDIO INDEX 00 06:24:03FILE "14 Pista14.wav" WAVE INDEX 01 00:00:00FILE "15 Pista15.wav" WAVE TRACK 15 AUDIO INDEX 01 00:00:00 TRACK 16 AUDIO INDEX 00 04:28:23FILE "16 Pista16.wav" WAVE INDEX 01 00:00:00FILE "17 Pista17.wav" WAVE TRACK 17 AUDIO INDEX 01 00:00:00

Треклист

Disc 1:
Giacomo Puccini:
1. Tosca: Recondita armonia
2. La fanciulla del West: Una parola sola ... Or son sei mesi
3. Madama Butterfly: Addio, fiorio asil
4. Turandot: Non piangere Liu
5. Gianni Schicchi: Firenze è come un albero fiorito
6. Manon Lescaut: Donna non vidi mai
7. La bohème: Che gelida manina (Act I)
8. Turandot: Nessun dorma (Act III)
9. La fanciulla del West: Ch’ella mi creda libero e lontano (Act III)
10. Il tabarro: Hai ben ragione
11. Tosca: E lucevan le stelle (Act III)
12. Manon Lescaut: Che avvien! ... Ah! non v’avvicinate ... Guardate, pazzo son (Act III)
Gaetano Donizetti:
13 L’elisir d’amore: Una furtiva lagrima (Act II)
Giacomo Meyerbeer:
14 L’Africaine: Mi batti il cor ... O paradiso (Act IV)
Amilcare Ponchielli:
15. La Gioconda: Cielo e mar (Act II)
Friedrich von Flotow:
16 Martha: Ach, so fromm (Act III)
Giuseppe Verdi:
17. Aida: Celeste Aida (Act I)
Il trovatore (sung in German):
18 Laβ die Sorgen entschwinden … Daβ nur für mich dein Herz erbebt (Act III)
19 Lodern zum Himmel (Act III)
Rigoletto (sung in German):
20 Sie wurde mir entrissen … Ich seh die heiβen Zähren (Act II)
21 Ach wie so trügerisch (Act III)
Disc 2:
Giuseppe Verdi:
from Sei Romanze, 1838:
1 I Non t’accostare all’urna (Jacopo Vittorelli)
2 II More, Elisa, lo stanco poeta (Tommaso Bianchi)
3 III In solitaria stanza (Jacopo Vittorelli)
from Sei Romanze, 1845:
4 I Il tramonto (Andrea Maffei)
5 V Il mistero (Felice Romani)
6 Il poveretto (Manfredo Maggioni), 1847
from Sei Romanze, 1845:
7 VI Brindisi (Andrea Maffei)
Richard Wagner:8 Karnevalslied
Lieder für Singstimme und Klavier:
9 IV Der Tannenbaum
10 II Die Rose
Wesendonck Lieder:
11 IV Schmerzen
12 V Träume
13 Die beiden Grenadiere
Die Meistersinger von Nürnberg:
14 Am stillen Herd (Act I)
15 Morgenlich leuchtend (Act III)
Lohengrin:
16 In fernem Land, unnahbar euren Scritten (Act III)
17 Mein lieber Schwan (Act III)



Показать сообщения:    

Текущее время: 10-Дек 21:36

Часовой пояс: UTC + 3


Вы не можете начинать темы
Вы не можете отвечать на сообщения
Вы не можете редактировать свои сообщения
Вы не можете удалять свои сообщения
Вы не можете голосовать в опросах
Вы не можете прикреплять файлы к сообщениям
Вы не можете скачивать файлы