Юбилейный вечер Валентина Гафта [2016 г., юбилейный вечер, HDTVRip] Московский государственный театр "Современник"


Статистика раздачи [Обновить пиров]
Размер:  1.22 GB   |    Зарегистрирован:  10 месяцев 15 дней   |    Скачан:  0 раз

Полного источника не было: Никогда

 
   
 
 
 

[Цитировать]

Юбилейный вечер Валентина Гафта Название театра: Московский государственный театр "Современник".
Год выпуска: 2016.
Жанр: юбилейный вечер.
Продолжительность: 01:30:15.
Ведущие вечера: Виктория Романенко, Чулпан Хаматова, Никита Ефремов и Александр Олешко.
На сцене выступили:
Хор Минина, Юрий и Ксения Башмет, Тамара Гвердцители, Александр Градский, Лариса Долина, Гарик Сукачев, Владимир Качан, Варвара Визбор, Юрий Башмет, Игорь Золотовицкий, Олег Табаков, Геннадий Хазанов и многие другие.
Описание:
Свой 80-летний юбилей великий русский актер Валентин Гафт отмечал 2 сентября 2015 года. Однако масштаб личности и след, оставленный Гафтом в кино, театре, культуре таков, что юбиляра
чествуют до сих пор. Первый юбилейный вечер с аншлагом прошёл в Вахтанговском театре. А в конце октября Валентина Гафта поздравили актёры его родного театра "Современник". Сам Валентин Гафт не любит пышных церемониалов и повышенного внимания к своей персоне. Поэтому к мероприятиям в честь своего 80-летия отнёсся по-философски спокойно. А вот зрители встреч с любимым артистом всегда ждут, как праздника. Чествовали великого артиста и именитые гости. Огромное число знаменитых гостей, которых собрал этот юбилейный вечер, не удивляет. В театре давно шутят, что Гафт - это уже давно аббревиатура: Гениальный Артист Феноменальный Талант.
Ведущие вечера прочли эпиграммы знаменитых людей, написанных в свое время на Гафта, но все равно превзойти талант юбиляра не мог, разумеется, никто. Самый большой успех вызывали строчки, сочиненные самим Гафтом. "Тем, у кого таланта нет ни грамма, от Гафта не дождаться эпиграммы", - подытожил Михаил Ефремов. "Современник" подготовил на своего легендарного артиста досье. Так, на сцене Валентин Иосифович сыграл 29 ролей. Архивисты отталкивались от внешности и полагали, что его персонажи были, в основном, иностранцами. Однако со счетом 21:8 победили соотечественники. Десять раз он играл интеллигентных людей, пять раз - маргиналов. Далее идут военные и чиновники (их было много), а замыкают список три короля, два слуги и один рабочий. Восемь раз его герои были женаты, причем дважды на Галине Борисовне Волчек. Любовников, изменяющих женам, он тоже играл в двух спектаклях и всякий раз уходил из семьи к Марине Нееловой. Лишь однажды он попытался жениться, но с Лией Ахеджаковой у них не срослось. Кроме того, Валентин Иосифович бесконечное множество раз пленял женщин напрасными надеждами, но, как водится, бросал. Елену Яковлеву ухитрился бросить дважды. Впрочем, сатисфакция от женской половины труппы "Современника" все-таки произошла. Его тоже бросили. Один раз. И это была Нина Дорошина.
Валентин Гафт: "Я не хотел устраивать этот вечер, но согласился, если пройдет он без пафоса. Тихо. От самого сердца. И мне кажется, что "Современник" с этой задачей блестяще справился: я не представлял себе, какой наш театр молодец. Я счастлив и хочу пожелать театру, родному своему коллективу побольше таких вечеров".

Дополнительная информация:
Страна: Россия .
Авторы прозвучавших произведений: Ян Френкель, Роберт Рождественский, Рабиндранат Тагор, Алексей Рыбников, Борис Пастернак, Булат Окуджава, Юрий Визбор, Армен Григорян, Арсен Мартиросян, Валентин Гафт, Александр Градский, Владимир Качан, Гарик Сукачев, Иржи Бенда.

Премьера на Первом канале в 19:10 9 января 2016 г.

Релиз
Рип lesik689.

Качество видео:...HDTVRip
Формат:.................AVI
Видео:..704x400 (1.76:1), 25 fps, XviD MPEG-4 ~1800 kbps avg, 0.26 bit/pixel
Аудио:..48 kHz, MPEG Layer 3, 2 ch, ~128.00 kbps avg

Отчет Media Info

General
Complete name : Yubilejnyj.vecher.Valentina.Gafta_Teatr.Sovremennik.2015.XviD.HDTVRip.fenixclub.avi
Format : AVI
Format/Info : Audio Video Interleave
Format profile : OpenDML
File size : 1.22 GiB
Duration : 1h 30mn
Overall bit rate : 1 935 Kbps
Writing library : MPlayer
Video
ID : 0
Format : MPEG-4 Visual
Format profile : Advanced Simple@L5
Format settings, BVOP : 2
Format settings, QPel : No
Format settings, GMC : No warppoints
Format settings, Matrix : Default (MPEG)
Codec ID : XVID
Codec ID/Hint : XviD
Duration : 1h 30mn
Bit rate : 1 801 Kbps
Width : 704 pixels
Height : 400 pixels
Display aspect ratio : 16:9
Frame rate : 25.000 fps
Color space : YUV
Chroma subsampling : 4:2:0
Bit depth : 8 bits
Scan type : Progressive
Compression mode : Lossy
Bits/(Pixel*Frame) : 0.256
Stream size : 1.14 GiB (93%)
Writing library : XviD 73
Audio
ID : 1
Format : MPEG Audio
Format version : Version 1
Format profile : Layer 3
Mode : Joint stereo
Mode extension : MS Stereo
Codec ID : 55
Codec ID/Hint : MP3
Duration : 1h 30mn
Bit rate mode : Constant
Bit rate : 128 Kbps
Channel(s) : 2 channels
Sampling rate : 48.0 KHz
Compression mode : Lossy
Stream size : 82.6 MiB (7%)
Alignment : Split accross interleaves
Interleave, duration : 500 ms (12.50 video frames)
Interleave, preload duratio : 500 ms.

Скриншоты


Альтернативный хост


[teatrix.ru].t12954.torrent 
Торрент: Зарегистрирован [ 2016-01-21 02:15 ] · 55B4A8519A1BD7AB7B56D278C380E8FBA96FCEAD

Скачать .torrent

Скачать

13 KB

Статус: проверено
Скачан: 0 раз
Размер: 1.22 GB
terms.php



Быстрый ответ

Имя:

      
Для отправки сообщений необходимо включить JavaScript
Показать сообщения:    

Текущее время: 05-Дек 17:35

Часовой пояс: UTC + 3


Вы можете начинать темы
Вы можете отвечать на сообщения
Вы не можете редактировать свои сообщения
Вы не можете удалять свои сообщения
Вы не можете голосовать в опросах
Вы не можете прикреплять файлы к сообщениям
Вы можете скачивать файлы