Героические времена / Dalias idok / Heroic Times (Джозеф Гимис / Jozsef Gemes) [1983, Венгрия, Рисованная мультипликация, эпическая история, TVRip] VO (Иван Вево) + Original


 

[Цитировать]

Героические времена / Dalias idok / Heroic times-- Страна: Венгрия
Жанр: Рисованная мультипликация, эпическая история
Год выпуска: 1983
Продолжительность: 01:18:45
Перевод: Одноголосый закадровый
Cубтитры: нет
Оригинальная аудиодорожка: венгерский--Режиссер: Джозеф Гимис / Jozsef Gemes--Описание: Анимационный, исторический, эпический фильм, снятый сценаристом и режиссером Джозефом Гимисом. Это адаптация трилогии «Толди» - эпической поэмы 19-го века Яноша Араня. На создание поэмы автора вдохновили жизнь и подвиги рыцаря Миклоша Толди (1320—22 ноября 1390), который служил в армии венгерского Короля Людовика Великого.
Миклош - юноша дворянского происхождения, одарённый недюжинной физической силой, работает плечом к плечу с батраками в семейном поместье. Но, поссорившись с братом, он решается покинуть родной дом, мечтая о жизни рыцаря. Так он становится настоящим народным героем времен короля Людовика.
Фильм снят на киностудии Pannonia Film Studio и отличается своим визуальным стилем, напоминает картину, написанную маслом.--Доп. информация: Премии:
Премия на Интернациональном фестивале анимационных фильмов в Анесси в 1985-м году.--Большое спасибо larisa_k, за предоставленные материалы
Озвучено Иван Вево по субтитрам Марины Комаровой
Сведение звука: pca1962--Сэмпл: http://multi-up.com/1085064
Качество видео: TVRip
Формат видео: AVI
Видео: XviD, 576x432, 25.00 fps, 1109 kbps
Аудио: AC3, 48 kHz, 2.0 (stereo), 192 kbps (русский)
Аудио 2: AC3, 48 kHz, 2.0 (stereo), 128 kbps (венгерский)-
-

MediaInfo

General
Complete name : Geroicheskie.vremena.1983.TVRip.XviD.avi
Format : AVI
Format/Info : Audio Video Interleave
File size : 813 MiB
Duration : 1h 18mn
Overall bit rate : 1 443 Kbps
Movie name : Geroicheskie vremena (Dalias idok) 1983
Director : Mixing audio rus - pca1962
Writing application : VirtualDubMod 1.5.10.2 (build 2542/release)
Video
ID : 0
Format : MPEG-4 Visual
Format profile : Advanced Simple@L5
Format settings, BVOP : 2
Format settings, QPel : No
Format settings, GMC : No warppoints
Format settings, Matrix : Default (H.263)
Codec ID : XVID
Codec ID/Hint : XviD
Duration : 1h 18mn
Bit rate : 1 109 Kbps
Width : 576 pixels
Height : 432 pixels
Display aspect ratio : 4:3
Frame rate : 25.000 fps
Color space : YUV
Chroma subsampling : 4:2:0
Bit depth : 8 bits
Scan type : Progressive
Compression mode : Lossy
Bits/(Pixel*Frame) : 0.178
Stream size : 625 MiB (77%)
Writing library : XviD 1.0.1 (UTC 2004-06-05)
Audio #1
ID : 1
Format : AC-3
Format/Info : Audio Coding 3
Mode extension : CM (complete main)
Format settings, Endianness : Big
Codec ID : 2000
Duration : 1h 18mn
Bit rate mode : Constant
Bit rate : 192 Kbps
Channel(s) : 2 channels
Channel positions : Front: L R
Sampling rate : 48.0 KHz
Compression mode : Lossy
Stream size : 108 MiB (13%)
Alignment : Split accross interleaves
Interleave, duration : 40 ms (1.00 video frame)
Interleave, preload duratio : 500 ms
Audio #2
ID : 2
Format : AC-3
Format/Info : Audio Coding 3
Mode extension : CM (complete main)
Format settings, Endianness : Big
Codec ID : 2000
Duration : 1h 18mn
Bit rate mode : Constant
Bit rate : 128 Kbps
Channel(s) : 2 channels
Channel positions : Front: L R
Sampling rate : 48.0 KHz
Compression mode : Lossy
Stream size : 72.1 MiB (9%)
Alignment : Split accross interleaves
Interleave, duration : 40 ms (1.00 video frame)
Interleave, preload duratio : 500 ms

Скриншот c названием фильма

Скриншоты




Показать сообщения:    

Текущее время: 09-Дек 03:02

Часовой пояс: UTC + 3


Вы не можете начинать темы
Вы не можете отвечать на сообщения
Вы не можете редактировать свои сообщения
Вы не можете удалять свои сообщения
Вы не можете голосовать в опросах
Вы не можете прикреплять файлы к сообщениям
Вы не можете скачивать файлы