Возмутитель спокойствия / Borgman (Алекс ван Вармердам / Alex van Warmerdam) [2013, Нидерланды, Бельгия, Триллер, HDRip] MVO


 

[Цитировать]

Возмутитель спокойствия / Borgman
Страна: Нидерланды, Бельгия
Жанр: Триллер
Год выпуска: 2013
Продолжительность: 01:53:14

Перевод: Профессиональный (многоголосый закадровый)
Cубтитры: нет
Режиссер: Алекс ван Вармердам / Alex van Warmerdam
В ролях: Ян Бейвут, Хадевих Минис, Джероен Персеваль, Алекс ван Вармердам, Том Девиспелар, Сара Йорт Дитлевсен, Элве Лейбарт, Диркье ван дер Пейл, Питер-Бас де Вард, Ева ван де Вийдевен

Описание: То ли демон из ночных кошмаров, то ли аллегория, то ли ожившее воплощение всех человеческих страхов — Боргман, словно злой дух современного города, загнанный за красивые фасады, вырывается на волю. Размеренная жизнь обычной семьи с его появлением уже никогда не вернется в прежнее русло…
Сэмпл: http://sendfile.su/1195273
Качество видео: HDRip
Формат видео: AVI
Видео: XviD, 720x304 (2.35:1), 24.000 fps, 1644 kbps
Аудио: AC3, 48.0 KHz, 192 kbps (2 ch)

MI

Format : AVI
Format/Info : Audio Video Interleave
File size : 1.46 GiB
Duration : 1h 53mn
Overall bit rate : 1 846 Kbps
Writing application : VirtualDubMod 1.5.10.2 (build 2540/release)
Writing library : VirtualDubMod build 2540/release
Video
ID : 0
Format : MPEG-4 Visual
Format profile : Advanced Simple@L5
Format settings, BVOP : 2
Format settings, QPel : No
Format settings, GMC : No warppoints
Format settings, Matrix : Default (MPEG)
Codec ID : XVID
Codec ID/Hint : XviD
Duration : 1h 53mn
Bit rate : 1 644 Kbps
Width : 720 pixels
Height : 304 pixels
Display aspect ratio : 2.35:1
Frame rate : 24.000 fps
Color space : YUV
Chroma subsampling : 4:2:0
Bit depth : 8 bits
Scan type : Progressive
Compression mode : Lossy
Bits/(Pixel*Frame) : 0.313
Stream size : 1.30 GiB (89%)
Writing library : XviD 1.2.1 (UTC 2008-12-04)
Audio
ID : 1
Format : AC-3
Format/Info : Audio Coding 3
Mode extension : CM (complete main)
Format settings, Endianness : Big
Codec ID : 2000
Duration : 1h 53mn
Bit rate mode : Constant
Bit rate : 192 Kbps
Channel(s) : 2 channels
Channel positions : Front: L R
Sampling rate : 48.0 KHz
Bit depth : 16 bits
Compression mode : Lossy
Stream size : 155 MiB (10%)
Alignment : Split accross interleaves
Interleave, duration : 42 ms (1.00 video frame)
Interleave, preload duration : 500 ms

Скриншоты




Показать сообщения:    

Текущее время: 04-Дек 00:49

Часовой пояс: UTC + 3


Вы не можете начинать темы
Вы не можете отвечать на сообщения
Вы не можете редактировать свои сообщения
Вы не можете удалять свои сообщения
Вы не можете голосовать в опросах
Вы не можете прикреплять файлы к сообщениям
Вы не можете скачивать файлы