(Liturgy) Armenian Liturgy. Yekmalian Makar (Tchekidjian, State Choir of Armenia) (Армянская Литургия. Екмалян) - 2001, FLAC (tracks+.cue), lossless


Статистика раздачи [Обновить пиров]
Размер:  303 MB   |    Зарегистрирован:  10 месяцев 21 день   |    Скачан:  0 раз

Полного источника не было: Никогда

 
   
 
 
 

[Цитировать]

Armenian Liturgy. Yekmalian Makar (Tchekidjian, State Choir of Armenia) (Армянская Литургия. Екмалян)
Жанр: Liturgy
Год выпуска диска: 2001
Производитель диска: © + ® Ohannes Tchekidjian. Canada
Аудио кодек: FLAC
Тип рипа: tracks+.cue
Битрейт аудио: lossless
Продолжительность: 76:01
Composer: Makar Yekmalian
Conductor: Ohannes Tchekidjian
Performer: State Choir of Armenia
Праздничная Пасхальная Литургия посвещена 1700 летию принятия христианства в Армении.
Католикос Гарегин Первый (Garegin A) (1995—1999)

Трэклист:
1. Prima part. Khorurd Khorin (13:09)
2. Second part. Khristos i metc mer (23:04)
3. Third part. Garegin A (9:03)
4. Fourth part. Hair mer (4:22)
5. Fifth part. Miajn Surb (10:27)
6. Sixth part. Ter voghormia. Saghmos asacekh. Orhnial e Astvatc (15:56)

log EAC

Exact Audio Copy V1.0 beta 3 from 29. August 2011
EAC extraction logfile from 21. January 2016, 0:06
Tchekidjian, State Choir of Armenia / Armenian Liturgy. Yekmalian
Used drive : PIONEER DVD-RW DVR-221L Adapter: 2 ID: 0
Read mode : SecureUtilize accurate stream : YesDefeat audio cache : YesMake use of C2 pointers : No
Read offset correction : 6Overread into Lead-In and Lead-Out : NoFill up missing offset samples with silence : YesDelete leading and trailing silent blocks : NoNull samples used in CRC calculations : YesUsed interface : Installed external ASPI interfaceGap handling : Appended to previous track
Used output format : User Defined EncoderSelected bitrate : 768 kBit/sQuality : HighAdd ID3 tag : NoCommand line compressor : C:\Program Files\Exact Audio Copy\Flac\flac.exeAdditional command line options : -6 -V -T "ARTIST=%artist%" -T "TITLE=%title%" -T "ALBUM=%albumtitle%" -T "DATE=%year%" -T "TRACKNUMBER=%tracknr%" -T "GENRE=%genre%" -T "COMMENT=%comment%" -T "ALBUMARTIST=%albuminterpret%" -T "COMPOSER=%composer%" -T "DISCNUMBER=%cdnumber%" -T "TOTALDISCS=%totalcds%" -T "TOTALTRACKS=%numtracks%" %source% -o %dest%
TOC of the extracted CD
Track | Start | Length | Start sector | End sector --------------------------------------------------------- 1 | 0:00.00 | 13:09.37 | 0 | 59211 2 | 13:09.37 | 23:04.33 | 59212 | 163044 3 | 36:13.70 | 9:03.60 | 163045 | 203829 4 | 45:17.55 | 4:22.27 | 203830 | 223506 5 | 49:40.07 | 10:27.08 | 223507 | 270539 6 | 60:07.15 | 15:56.35 | 270540 | 342274
Track 1
Filename D:\EAC\01 - Prima part. Khorurd Khorin.wav
Pre-gap length 0:00:02.00
Peak level 99.9 % Extraction speed 5.5 X Track quality 99.9 % Test CRC D99AF82F Copy CRC D99AF82F Accurately ripped (confidence 1) [358B7CE9] (AR v1) Copy OK
Track 2
Filename D:\EAC\02 - Second part. Khristos i metc mer.wav
Peak level 99.9 % Extraction speed 7.3 X Track quality 99.9 % Test CRC A0B00FBB Copy CRC A0B00FBB Accurately ripped (confidence 1) [34E8C5D0] (AR v1) Copy OK
Track 3
Filename D:\EAC\03 - Third part. Garegin A.wav
Peak level 99.3 % Extraction speed 8.0 X Track quality 99.9 % Test CRC 06C014CA Copy CRC 06C014CA Accurately ripped (confidence 1) [31998589] (AR v1) Copy OK
Track 4
Filename D:\EAC\04 - Fourth part. Hair mer.wav
Peak level 99.9 % Extraction speed 8.7 X Track quality 100.0 % Test CRC 43AB39C5 Copy CRC 43AB39C5 Accurately ripped (confidence 1) [328885E5] (AR v1) Copy OK
Track 5
Filename D:\EAC\05 - Fifth part. Miajn Surb.wav
Peak level 81.5 % Extraction speed 9.3 X Track quality 99.9 % Test CRC DC2ECBD8 Copy CRC DC2ECBD8 Accurately ripped (confidence 1) [809B11E1] (AR v1) Copy OK
Track 6
Filename D:\EAC\06 - Sixth part. Ter voghormia. Saghmos asacekh. Orhnial e Astvatc.wav
Peak level 99.9 % Extraction speed 11.2 X Track quality 100.0 % Test CRC FC73BD47 Copy CRC FC73BD47 Accurately ripped (confidence 1) [FDFDAEBE] (AR v1) Copy OK
All tracks accurately ripped
No errors occurred
End of status report
==== Log checksum 0CC43F83F2470B79C5C9B6E67ECD2DFCA7FD3440ED6D501D86546A3244DACB5D ====

LOG (.CUE):

REM GENRE ClassicalREM DATE 2001REM DISCID 5C11D306REM COMMENT "ExactAudioCopy v1.0b3"PERFORMER "Tchekidjian, State Choir of Armenia"TITLE "Armenian Liturgy. Yekmalian"FILE "01 - Prima part. Khorurd Khorin.wav" WAVE TRACK 01 AUDIO TITLE "Prima part. Khorurd Khorin" PERFORMER "Tchekidjian, State Choir of Armenia" INDEX 01 00:00:00FILE "02 - Second part. Khristos i metc mer.wav" WAVE TRACK 02 AUDIO TITLE "Second part. Khristos i metc mer" PERFORMER "Tchekidjian, State Choir of Armenia" INDEX 01 00:00:00FILE "03 - Third part. Garegin A.wav" WAVE TRACK 03 AUDIO TITLE "Third part. Garegin A" PERFORMER "Tchekidjian, State Choir of Armenia" INDEX 01 00:00:00FILE "04 - Fourth part. Hair mer.wav" WAVE TRACK 04 AUDIO TITLE "Fourth part. Hair mer" PERFORMER "Tchekidjian, State Choir of Armenia" INDEX 01 00:00:00FILE "05 - Fifth part. Miajn Surb.wav" WAVE TRACK 05 AUDIO TITLE "Fifth part. Miajn Surb" PERFORMER "Tchekidjian, State Choir of Armenia" INDEX 01 00:00:00FILE "06 - Sixth part. Ter voghormia. Saghmos asacekh. Orhnial e Astvatc.wav" WAVE TRACK 06 AUDIO TITLE "Sixth part. Ter voghormia. Saghmos asacekh. Orhnial e Astvatc" PERFORMER "Tchekidjian, State Choir of Armenia" INDEX 01 00:00:00
Tchekidjian-Komitas
Внимание! Торрент-файл перезалит 21.01.2016 в 00:15 по МСК времени, сделан новый рип с диска.
[teatrix.ru].t13118.torrent 
Торрент: Зарегистрирован [ 2016-01-21 06:25 ] · ECCC22A6788166E8120178816357725A7BE23D66

Скачать .torrent

Скачать

14 KB

Статус: проверено
Скачан: 0 раз
Размер: 303 MB
terms.php



Быстрый ответ

Имя:

      
Для отправки сообщений необходимо включить JavaScript
Показать сообщения:    

Текущее время: 11-Дек 16:53

Часовой пояс: UTC + 3


Вы можете начинать темы
Вы можете отвечать на сообщения
Вы не можете редактировать свои сообщения
Вы не можете удалять свои сообщения
Вы не можете голосовать в опросах
Вы не можете прикреплять файлы к сообщениям
Вы можете скачивать файлы